Anonymous, доброе утро, присоединяйтесь к нам в Telegram!, здесь всегда актуальный адрес сайта, оперативная поддержка и многое другое!

>

5.6

iTunes

7.4

MVO

5.7

MVO

1

7.7

1 сезон

6.8

iTunes

7.3

1 сезон

13

6.7

1 сезон

8.3

RePack

30

ULTIMATE

pack

9.9

Лицензия

ВАЖНО

ИГРА 18+

pack

7.3

RePack

MK11

7.7

RePack

jed

7.8

RePack

fifa19

8.5

RePack

RDR2

RePack

NEED FOR SPEED™ PAYBACK

4 сезон

9 сезон

Бесстыжие 9 сезон

Все сериалы

все сериалы на PB.wtf

RePack

FAR CRY 5

Anonymous, доброе утро, мы катастрофически не успеваем собрать деньги на оплату серверов, помогите нам пожалуйста 5,10,15р., для нас важна любая помощь . В качестве благодарности мы отключим Вам всю рекламу на сайте (укажите свой ник в строку Ваше имя)!

×
  
Magnet ссылка

Свидание на млечном пути (Янис Стрейч) [1985, СССР, драма, мелодрама, военный, SATRip-AVC от AVP Studio] freetor.icu

Свидание на млечном пути через торрент freetor.icu

Размер: 744 MB | Добавлен: 6 лет назад | Торрент скачан:18 раз
Смотреть онлайн Свидание на млечном пути | Скачать    Ребята, помогите собрать деньги на оплату серверов!!!

24-09-2015 08:30 Свидание на млечном пути Скачать торрент  

Свидание на млечном пути
Страна: СССР
Производство: Рижская киностудия

Жанр: драма, военный
Год выпуска: 1985
Продолжительность: 01:25:38

Перевод: Не требуется
Cубтитры: нет
Оригинальная аудиодорожка: русский

Режиссер: Янис Стрейч

В ролях:
Инара Слуцка, Нина Ильина, Елена Скороходова, Елена Казаринова, Наталья Заболотная, Анатолий Лукьяненко, Игорь Чернявский, Бесарион (Бесо) Хидешели, Манана Цховребова...
Полный список актёров

Описание:
Военная переводчица Астра Леиня получает разрешение служить в той же дивизии, в которой воюет ее жених. И теперь, подвергаясь смертельной опасности, пешком и на попутных машинах, она пробирается вдоль линии фронта и становится свидетельницей драматических событий войны и возрождающегося мира.

Источник: DVB
Качество видео: SATRip-AVC
Формат видео: MKV

Видео: 696->742x330 (2,25:1), 25 fps, H264 ~ 1021 kbps avg, 0.178 bit/pixel
Аудио: 48 kHz, Dolby Digital AC3 2.0, 192 kbps

Раздача от:
Общее
Полное имя : Svidanie.na.Mlechnom puti.1985.SATRip-AVC_[New-team]_by_AVP_Studio.mkv
Формат : Matroska
Версия формата : Version 2
Размер файла : 744 Мбайт
Продолжительность : 1 ч. 25 м.
Общий поток : 1215 Кбит/сек
Дата кодирования : UTC 2015-09-23 14:57:26
Программа кодирования : mkvmerge v6.1.0 ('Old Devil') built on Mar 4 2013 09:10:42
Библиотека кодирования : libebml v1.3.0 + libmatroska v1.4.0

Видео
Идентификатор : 1
Формат : AVC
Формат/Информация : Advanced Video Codec
Профиль формата : High@L4.1
Параметр CABAC формата : Да
Параметр ReFrames формата : 8 кадров
Идентификатор кодека : V_MPEG4/ISO/AVC
Продолжительность : 1 ч. 25 м.
Битрейт : 1021 Кбит/сек
Ширина : 696 пикселей
Высота : 330 пикселей
Соотношение сторон : 2,35:1
Соотношение сторон в оригинале : 2,35:1
Режим частоты кадров : Постоянный
Частота кадров : 25,000 кадров/сек
Цветовое пространство : YUV
Субдискретизация насыщенности : 4:2:0
Битовая глубина : 8 бит
Тип развёртки : Прогрессивная
Бит/(Пиксели*Кадры) : 0.178
Размер потока : 612 Мбайт (82%)
Библиотека кодирования : x264 core 130 r2273 b3065e6
Настройки программы : cabac=1 / ref=8 / deblock=1:-2:-1 / analyse=0x3:0x113 / me=umh / subme=10 / psy=1 / psy_rd=1.00:0.05 / mixed_ref=1 / me_range=32 / chroma_me=1 / trellis=2 / 8x8dct=1 / cqm=0 / deadzone=21,11 / fast_pskip=0 / chroma_qp_offset=-3 / threads=6 / lookahead_threads=1 / sliced_threads=0 / nr=0 / decimate=0 / interlaced=0 / bluray_compat=0 / constrained_intra=0 / bframes=8 / b_pyramid=2 / b_adapt=2 / b_bias=0 / direct=3 / weightb=1 / open_gop=0 / weightp=2 / keyint=250 / keyint_min=25 / scenecut=40 / intra_refresh=0 / rc=2pass / mbtree=0 / bitrate=1021 / ratetol=1.0 / qcomp=0.60 / qpmin=0 / qpmax=69 / qpstep=4 / cplxblur=20.0 / qblur=0.5 / ip_ratio=1.40 / pb_ratio=1.30 / aq=1:1.00
Default : Да
Forced : Нет

Аудио
Идентификатор : 2
Формат : AC-3
Формат/Информация : Audio Coding 3
Расширение режима : CM (complete main)
Параметр Endianness формата : Big
Идентификатор кодека : A_AC3
Продолжительность : 1 ч. 25 м.
Вид битрейта : Постоянный
Битрейт : 192 Кбит/сек
Каналы : 2 канала
Расположение каналов : Front: L R
Частота : 48,0 КГц
Метод сжатия : С потерями
Размер потока : 118 Мбайт (16%)
Default : Да
Forced : Нет
freetor.icu



Скачать Свидание на млечном пути через торрент http://s017.radikal.ru/i405/1509/54/0bc96bc86532.png Скачать, смотреть онлайн Свидание на млечном пути бесплантно в хорошем качестве Описание:Военная переводчица Астра Леиня получает разрешение служить в той же дивизии, в которой воюет ее жених. И теперь, подвергаясь ... 10 10 6
Торрент: Зарегистрирован [2015-09-24 08:30] · скачан: 18 раз
Статус: √ проверено
Размер: 744 MB
Как cкачать? Как скачать Свидание на млечном пути через торрент | UTorrent

% Раздел Тема Автор DL S | L
Кино СССР [ 745 MB ] Свидание на млечном пути [1985 СССР военный SATRip от AVP Studio] AVP Studio Скачать
1 | 0

28-11-2019 20:33  

Отключить всю рекламу на сайте

    Дорогой пользователь! Огромная просьба, поблагодарите релизера, оцените раздачу и оставьте свои комментарий, если Вы скачали Свидание на млечном пути через торрент бесплатно!
    Комментировать посты могут только пользователи прошедшие не сложную регистрацию
    Показать сообщения:    

    Свидание на млечном пути через торрент
    Скачать бесплатно Свидание на млечном пути
    Свидание на млечном пути скачать торрент
    Свидание на млечном пути смотреть онлайн
    Cкачать фильм Свидание на млечном пути бесплатно
    Свидание на млечном пути скачать торрент в хорошем качестве
    Свидание на млечном пути смотреть онлайн бесплатно в хорошем качестве


    Вы не можете начинать темы
    Вы не можете отвечать на сообщения
    Вы не можете редактировать свои сообщения
    Вы не можете удалять свои сообщения
    Вы не можете голосовать в опросах
    Вы не можете прикреплять файлы к сообщениям
    Вы можете скачивать файлы