Anonymous, добрый вечер, присоединяйтесь к нам в Telegram!, здесь всегда актуальный адрес сайта, оперативная поддержка и многое другое!

>

5.6

iTunes

7.4

iTunes

7.9

MVO

1

7.7

1 сезон

6.8

iTunes

7.3

1 сезон

13

6.7

1 сезон

8.3

RePack

30

ОНЛАЙН

pack

9.9

Лицензия

ВАЖНО

ИГРА 18+

pack

7.3

RePack

MK11

7.7

RePack

jed

7.8

RePack

fifa19

8.5

RePack

RDR2

RePack

NEED FOR SPEED™ PAYBACK

4 сезон

9 сезон

Бесстыжие 9 сезон

Все сериалы

все сериалы на PB.wtf

RePack

FAR CRY 5

Anonymous, добрый вечер, мы катастрофически не успеваем собрать деньги на оплату серверов, помогите нам пожалуйста 5,10,15р., для нас важна любая помощь . В качестве благодарности мы отключим Вам всю рекламу на сайте (укажите свой ник в строку Ваше имя)!

×
  
Magnet ссылка

Свидание на млечном пути (Янис Стрейч) [1985, СССР, драма, мелодрама, военный, SATRip от AVP Studio] freetor.icu

Свидание на млечном пути через торрент freetor.icu

Раздают: 1 [ 0 KB/s ]
Размер: 745 MB | Добавлен: 6 лет назад | Торрент скачан:35 раз
Смотреть онлайн Свидание на млечном пути | Скачать    Ребята, помогите собрать деньги на оплату серверов!!!

24-09-2015 08:29 Свидание на млечном пути Скачать торрент  

Свидание на млечном пути
Страна: СССР
Производство: Рижская киностудия

Жанр: драма, военный
Год выпуска: 1985
Продолжительность: 01:25:38

Перевод: Не требуется
Cубтитры: нет
Оригинальная аудиодорожка: русский

Режиссер: Янис Стрейч

В ролях:
Инара Слуцка, Нина Ильина, Елена Скороходова, Елена Казаринова, Наталья Заболотная, Анатолий Лукьяненко, Игорь Чернявский, Бесарион (Бесо) Хидешели, Манана Цховребова...
Полный список актёров

Описание:
Военная переводчица Астра Леиня получает разрешение служить в той же дивизии, в которой воюет ее жених. И теперь, подвергаясь смертельной опасности, пешком и на попутных машинах, она пробирается вдоль линии фронта и становится свидетельницей драматических событий войны и возрождающегося мира.

Источник: DVB
Качество видео: SATRip
Формат видео: AVI

Видео: 688x304 (2,25:1), 25 fps, XviD ~ 1015 kbps avg, 0.194 bit/pixel
Аудио: 48 kHz, Dolby Digital AC3 2.0, 192 kbps

Раздача от:
Общее
Полное имя : Svidanie.na.Mlechnom puti.1985.SATRip_[New-team]_by_AVP_Studio.avi
Формат : AVI
Формат/Информация : Audio Video Interleave
Размер файла : 745 Мбайт
Продолжительность : 1 ч. 25 м.
Общий поток : 1217 Кбит/сек
Программа кодирования : VirtualDubMod 1.5.10.3 | www.virtualdub-fr.org || (build 2550/release)
Библиотека кодирования : VirtualDubMod build 2550/release

Видео
Идентификатор : 0
Формат : MPEG-4 Visual
Профиль формата : Advanced Simple@L5
Параметр BVOP формата : 1
Параметр QPel формата : Нет
Параметр GMC формата : Без точки перехода
Параметр матрицы формата : Выборочная
Идентификатор кодека : XVID
Идентификатор кодека/Подсказка : XviD
Продолжительность : 1 ч. 25 м.
Битрейт : 1015 Кбит/сек
Ширина : 688 пикселей
Высота : 304 пикселя
Соотношение сторон : 2,25:1
Частота кадров : 25,000 кадров/сек
Цветовое пространство : YUV
Субдискретизация насыщенности : 4:2:0
Битовая глубина : 8 бит
Тип развёртки : Прогрессивная
Метод сжатия : С потерями
Бит/(Пиксели*Кадры) : 0.194
Размер потока : 622 Мбайт (83%)
Библиотека кодирования : XviD 73

Аудио
Идентификатор : 1
Формат : AC-3
Формат/Информация : Audio Coding 3
Расширение режима : CM (complete main)
Параметр Endianness формата : Big
Идентификатор кодека : 2000
Продолжительность : 1 ч. 25 м.
Вид битрейта : Постоянный
Битрейт : 192 Кбит/сек
Каналы : 2 канала
Расположение каналов : Front: L R
Частота : 48,0 КГц
Метод сжатия : С потерями
Размер потока : 118 Мбайт (16%)
Выравнивание : Разделение по промежуткам
Продолжительность промежутка : 40 мс. (1,00 видеокадр)
Время предзагрузки промежутка : 500 мс
freetor.icu



Скачать Свидание на млечном пути через торрент http://s017.radikal.ru/i405/1509/54/0bc96bc86532.png Скачать, смотреть онлайн Свидание на млечном пути бесплантно в хорошем качестве Описание:Военная переводчица Астра Леиня получает разрешение служить в той же дивизии, в которой воюет ее жених. И теперь, подвергаясь ... 10 10 1
Торрент: Зарегистрирован [2015-09-24 08:29] · скачан: 35 раз
Статус: √ проверено
Размер: 745 MB
Как cкачать? Как скачать Свидание на млечном пути через торрент | UTorrent

% Раздел Тема Автор DL S | L
Кино СССР [ 744 MB ] Свидание на млечном пути [1985 СССР военный SATRip-AVC от AVP Studio] AVP Studio Скачать
1 | 0

28-11-2019 20:33  

Отключить всю рекламу на сайте

    Дорогой пользователь! Огромная просьба, поблагодарите релизера, оцените раздачу и оставьте свои комментарий, если Вы скачали Свидание на млечном пути через торрент бесплатно!
    Комментировать посты могут только пользователи прошедшие не сложную регистрацию
    Показать сообщения:    

    Свидание на млечном пути через торрент
    Скачать бесплатно Свидание на млечном пути
    Свидание на млечном пути скачать торрент
    Свидание на млечном пути смотреть онлайн
    Cкачать фильм Свидание на млечном пути бесплатно
    Свидание на млечном пути скачать торрент в хорошем качестве
    Свидание на млечном пути смотреть онлайн бесплатно в хорошем качестве


    Вы не можете начинать темы
    Вы не можете отвечать на сообщения
    Вы не можете редактировать свои сообщения
    Вы не можете удалять свои сообщения
    Вы не можете голосовать в опросах
    Вы не можете прикреплять файлы к сообщениям
    Вы можете скачивать файлы