Присоединяйтесь к нам в Telegram!, здесь всегда актуальный адрес сайта, оперативная поддержка и многое другое!!

>

5.9

iTunes

7.4

iTunes

9.4

1 сезон

1

7.4

2 сезон

7.2

iTunes

7.3

iTunes

13

6.1

iTunes

8.3

Пиратка

30

ULTIMATE

pack

9.9

Лицензия

ВАЖНО

ИГРА 18+

pack

7.3

RePack

MK11

7.7

RePack

jed

7.8

RePack

fifa19

8.5

RePack

RDR2

RePack

NEED FOR SPEED™ PAYBACK

5 сезон

9 сезон

Бесстыжие 9 сезон

Все сериалы

все сериалы на PB.wtf

RePack

FAR CRY 5

Anonymous, доброе утро, мы катастрофически не успеваем собрать деньги на оплату серверов, помогите нам пожалуйста 5,10,15р., для нас важна любая помощь . В качестве благодарности мы отключим Вам всю рекламу на сайте (укажите свой ник в строку Ваше имя)!

×
  
Magnet ссылка

Тренер (Ники Каро / Niki Caro) [2015, Драма, спорт, BDRip-AVC] MVO [Лицензия] freetor.icu

Тренер через торрент freetor.icu

Размер: 2.91 GB | Добавлен: 6 лет 2 мес. назад | Торрент скачан:99 раз
Смотреть онлайн Тренер | Скачать    Ребята, помогите собрать деньги на оплату серверов!!!

18-06-2015 08:06 Тренер Скачать торрент  

Тренер
Год выпуска: 2015
Страна: США / Walt Disney Pictures, Mayhem Pictures
Жанр: Драма, спорт
Продолжительность: 02:08:55
Перевод: Профессиональный (многоголосый закадровый) [BD CEE]
Субтитры: Русские, английские (Full + SDH + SDH-Colored)

Режиссер: Ники Каро / Niki Caro

В ролях: Кевин Костнер, Рамиро Родригес, Карлос Праттс, Джонни Ортиз, Рафаэль Мартинез, Гектор Дюран, Серджо Авелар, Майкл Агеро, Диана-Мария Рива, Омар Лейва

Описание: История, основанная на реальных событиях. В начале девяностых, в маленьком городке МакФарланд, профессиональный тренер создает команду по легкой атлетике из обычных сорванцов и мелких «хулиганов», и приводит эту команду до вершины спортивного Олимпа. Население МакФарланда — это 90 процентов латиноамериканцы, которые приехали в США под видом переселенцев и беженцев…



Качество: BDRip-AVC
Формат: MKV
Видео кодек: H.264
Аудио кодек: AC3
Видео: 1060x444 (2,40:1), 23,976 fps, 2335 Kbps, 0.207 bit/pixel
Аудио#1: 48 kHz, AC3 Dolby Digital, 3/2 (L,C,R,l,r) + LFE ch, 448.00 kbps | RUS
Аудио#2: 48 kHz, AC3 Dolby Digital, 3/2 (L,C,R,l,r) + LFE ch, 448.00 kbps | ENG

Релиз группы:
Автор рипа: potroks

Общее
Уникальный идентификатор : 189659733930884829876583941317872321822 (0x8EAF22D648798F9A820FFF259FC4051E)
Полное имя : Trener.2015.DUAL.BDRip.x264.-HELLYWOOD.mkv
Формат : Matroska
Версия формата : Version 4 / Version 2
Размер файла : 2,91 Гбайт
Продолжительность : 2 ч. 8 м.
Общий поток : 3233 Кбит/сек
Название фильма : McFarland, USA (2015) - HELLYWOOD
Дата кодирования : UTC 2015-06-17 18:08:12
Программа кодирования : mkvmerge v5.9.0 ('On The Loose') built on Dec 15 2012 16:39:58
Библиотека кодирования : libebml v1.3.0 + libmatroska v1.4.0

Видео
Идентификатор : 1
Формат : AVC
Формат/Информация : Advanced Video Codec
Профиль формата : [email protected]
Параметр CABAC формата : Да
Параметр ReFrames формата : 10 кадров
Идентификатор кодека : V_MPEG4/ISO/AVC
Продолжительность : 2 ч. 8 м.
Битрейт : 2335 Кбит/сек
Ширина : 1060 пикселей
Высота : 444 пикселя
Соотношение сторон : 2,40:1
Режим частоты кадров : Постоянный
Частота кадров : 23,976 кадра/сек
Цветовое пространство : YUV
Субдискретизация насыщенности : 4:2:0
Битовая глубина : 8 бит
Тип развёртки : Прогрессивная
Бит/(Пиксели*Кадры) : 0.207
Размер потока : 2,05 Гбайт (70%)
Заголовок : potroks
Библиотека кодирования : x264 core 146 r2538 121396c
Настройки программы : cabac=1 / ref=10 / deblock=1:-2:-2 / analyse=0x3:0x113 / me=umh / subme=11 / psy=1 / psy_rd=0.99:0.02 / mixed_ref=1 / me_range=48 / chroma_me=1 / trellis=2 / 8x8dct=1 / cqm=0 / deadzone=21,11 / fast_pskip=0 / chroma_qp_offset=-3 / threads=9 / lookahead_threads=2 / sliced_threads=0 / nr=0 / decimate=1 / interlaced=0 / bluray_compat=0 / constrained_intra=0 / bframes=11 / b_pyramid=2 / b_adapt=2 / b_bias=0 / direct=3 / weightb=1 / open_gop=0 / weightp=2 / keyint=250 / keyint_min=23 / scenecut=40 / intra_refresh=0 / rc_lookahead=60 / rc=2pass / mbtree=0 / bitrate=2335 / ratetol=1.0 / qcomp=0.70 / qpmin=0 / qpmax=69 / qpstep=4 / cplxblur=20.0 / qblur=0.5 / vbv_maxrate=14000 / vbv_bufsize=14000 / nal_hrd=none / filler=0 / ip_ratio=1.35 / pb_ratio=1.25 / aq=2:0.80
Язык : English
Default : Да
Forced : Нет

Аудио #1
Идентификатор : 2
Формат : AC-3
Формат/Информация : Audio Coding 3
Расширение режима : CM (complete main)
Параметр Endianness формата : Big
Идентификатор кодека : A_AC3
Продолжительность : 2 ч. 8 м.
Вид битрейта : Постоянный
Битрейт : 448 Кбит/сек
Каналы : 6 каналов
Расположение каналов : Front: L C R, Side: L R, LFE
Частота : 48,0 КГц
Метод сжатия : С потерями
Размер потока : 413 Мбайт (14%)
Заголовок : MVO | DD 5.1 @ 448 kbps - Blu-Ray CEE
Язык : Russian
Default : Да
Forced : Нет

Аудио #2
Идентификатор : 3
Формат : AC-3
Формат/Информация : Audio Coding 3
Расширение режима : CM (complete main)
Параметр Endianness формата : Big
Идентификатор кодека : A_AC3
Продолжительность : 2 ч. 8 м.
Вид битрейта : Постоянный
Битрейт : 448 Кбит/сек
Каналы : 6 каналов
Расположение каналов : Front: L C R, Side: L R, LFE
Частота : 48,0 КГц
Метод сжатия : С потерями
Размер потока : 413 Мбайт (14%)
Заголовок : Original | DD 5.1 @ 448 kbps
Язык : English
Default : Нет
Forced : Нет

Текст #1
Идентификатор : 4
Формат : UTF-8
Идентификатор кодека : S_TEXT/UTF8
Идентификатор кодека/Информация : UTF-8 Plain Text
Заголовок : Blu-Ray
Язык : Russian
Default : Нет
Forced : Нет

Текст #2
Идентификатор : 5
Формат : UTF-8
Идентификатор кодека : S_TEXT/UTF8
Идентификатор кодека/Информация : UTF-8 Plain Text
Заголовок : Full
Язык : English
Default : Нет
Forced : Нет

Текст #3
Идентификатор : 6
Формат : UTF-8
Идентификатор кодека : S_TEXT/UTF8
Идентификатор кодека/Информация : UTF-8 Plain Text
Заголовок : SDH
Язык : English
Default : Нет
Forced : Нет

Текст #4
Идентификатор : 7
Формат : UTF-8
Идентификатор кодека : S_TEXT/UTF8
Идентификатор кодека/Информация : UTF-8 Plain Text
Заголовок : SDH-Colored
Язык : English
Default : Нет
Forced : Нет

Меню
00:00:00.000 : en:(01)00:00:00:000
00:05:48.348 : en:(02)00:05:48:348
00:08:58.538 : en:(03)00:08:58:538
00:13:24.845 : en:(04)00:13:24:845
00:15:26.674 : en:(05)00:15:26:674
00:19:21.367 : en:(06)00:19:21:367
00:22:19.296 : en:(07)00:22:19:296
00:25:50.757 : en:(08)00:25:50:757
00:34:41.454 : en:(09)00:34:41:454
00:41:11.177 : en:(10)00:41:11:177
00:43:13.840 : en:(11)00:43:13:840
00:48:04.922 : en:(12)00:48:04:922
00:55:29.951 : en:(13)00:55:29:951
00:57:24.315 : en:(14)00:57:24:315
01:01:23.096 : en:(15)01:01:23:096
01:06:03.458 : en:(16)01:06:03:458
01:10:50.996 : en:(17)01:10:50:996
01:14:02.854 : en:(18)01:14:02:854
01:18:48.555 : en:(19)01:18:48:555
01:28:10.533 : en:(20)01:28:10:533
01:37:34.849 : en:(21)01:37:34:849
01:40:24.643 : en:(22)01:40:24:643
01:45:38.081 : en:(23)01:45:38:081
01:53:12.743 : en:(24)01:53:12:743
02:02:03.774 : en:(25)02:02:03:774
02:04:34.507 : en:(26)02:04:34:507
02:08:55.769 : en:(27)02:08:55:769

freetor.icu



Скачать Тренер через торрент https://pic.kartinco.top/images/11/k3cny.jpg Скачать, смотреть онлайн Тренер бесплантно в хорошем качестве Описание: История, основанная на реальных событиях. В начале девяностых, в маленьком городке МакФарланд, тренер создает ... 9.8 10 22
Торрент: Зарегистрирован [2015-09-22 10:36] · скачан: 99 раз
Статус: √ проверено
Размер: 2.91 GB
Как cкачать? Как скачать Тренер через торрент | UTorrent

% Раздел Тема Автор DL S | L
Порно фильмы без сюжета [ 1.18 GB ] Тренер Мамочек 2 / MILF Trainer Vol. 2 [2021 Athletes Big Cocks Blowjobs Erotic Vignette Gonzo MILF Prebooks Shaved WEB-DL] bashai5 Скачать
5 | 1
Фильмы (HD 720p, 1080p) (48-60 fps) [ 3.92 GB ] Тренер / McFarland USA [2015 BDRip - HEVC 1080p 10 bit 60 FPS DUB] dd2d3 Скачать
3 | 0
Порно фильмы без сюжета [ 2.1 GB ] Персональный Тренер Мамочек 3 / Mommys Personal Trainer 3 [2021 Big Tits Big Ass Blonde Brunette Blowjob Cum On Pussy Creampie Facial MILF Pussy Licking TittyFucking WEB-DL] bashai5 Скачать
2 | 0
Русские порно ролики [ 548 MB ] Новая методика сумасшедшего тренера [2019 Amateur Roleplay Fitness CAMRip 720p] Скорпион1976 Скачать
2 | 0
Порно фильмы без сюжета [ 1.76 GB ] Персональный Тренер Мамочек 2 / Mommys Personal Trainer 2 [2020 All Sex Athletes Big Boobs Cumshots MILF WEB-DL] bashai5 Скачать
1 | 0
Гонзо [ 731 MB ] Личный тренер 2 / Personal Trainer 2 [2019 Gonzo Blowjob Big Tits DVDRip] Скорпион1976 Скачать
1 | 0
Порно фильмы без сюжета [ 2.77 GB ] Тренер Мамочек / MILF Trainer [2020 All Sex Big Boobs Big Booty MILF WEB-DL] bashai5 Скачать
1 | 0

28-11-2019 20:33  

Отключить всю рекламу на сайте

    Дорогой пользователь! Огромная просьба, поблагодарите релизера, оцените раздачу и оставьте свои комментарий, если Вы скачали Тренер через торрент бесплатно!
    Комментировать посты могут только пользователи прошедшие не сложную регистрацию
    Показать сообщения:    

    Тренер через торрент
    Скачать бесплатно Тренер
    Тренер скачать торрент
    Тренер смотреть онлайн
    Cкачать фильм Тренер бесплатно
    Тренер скачать торрент в хорошем качестве
    Тренер смотреть онлайн бесплатно в хорошем качестве


    Вы не можете начинать темы
    Вы не можете отвечать на сообщения
    Вы не можете редактировать свои сообщения
    Вы не можете удалять свои сообщения
    Вы не можете голосовать в опросах
    Вы не можете прикреплять файлы к сообщениям
    Вы можете скачивать файлы