Присоединяйтесь к нам в Telegram!, здесь всегда актуальный адрес сайта, оперативная поддержка и многое другое!!

>

5.9

iTunes

7.4

iTunes

9.4

1 сезон

1

7.4

2 сезон

7.2

iTunes

7.3

1 сезон

13

6.1

iTunes

8.3

Пиратка

30

ULTIMATE

pack

9.9

Лицензия

ВАЖНО

ИГРА 18+

pack

7.3

RePack

MK11

7.7

RePack

jed

7.8

RePack

fifa19

8.5

RePack

RDR2

RePack

NEED FOR SPEED™ PAYBACK

5 сезон

9 сезон

Бесстыжие 9 сезон

Все сериалы

все сериалы на PB.wtf

RePack

FAR CRY 5

Anonymous, доброй ночи, мы катастрофически не успеваем собрать деньги на оплату серверов, помогите нам пожалуйста 5,10,15р., для нас важна любая помощь . В качестве благодарности мы отключим Вам всю рекламу на сайте (укажите свой ник в строку Ваше имя)!

×
  
Magnet ссылка

Восхождение Юпитер (Энди Вачовски , Лана Вачовски ) [2015, фантастика, боевик, приключения, HDRip, Дубляж - Лицензия / iTunes] freetor.icu

Восхождение Юпитер через торрент freetor.icu

Размер: 2.05 GB | Добавлен: 6 лет 2 мес. назад | Торрент скачан:162 раза
Смотреть онлайн Восхождение Юпитер | Скачать    Ребята, помогите собрать деньги на оплату серверов!!!

05-05-2015 13:19 Восхождение Юпитер Скачать торрент  


Восхождение Юпитер
«Expand your universe»

ИНФОРМАЦИЯ:
Год выпуска:2015
Страна: США, Великобритания
Жанр: фантастика, боевик, приключения
Продолжительность: 02:07:34
Перевод: Дубляж - [Лицензия / iTunes]
Режиссер: Энди Вачовски , Лана Вачовски

В Ролях:


Ченнинг Татум (Caine Wise), Мила Кунис (Jupiter Jones), Шон Бин (Stinger Apini), Эдди Редмэйн (Balem Abrasax), Дуглас Бут (Titus Abrasax), Таппенс Мидлтон (Kalique Abrasax), Никки Амука-Бёрд (Diomika Tsing), Кристина Коул (Gemma Chatterjee), Николас А. Ньюман (Nesh), Рамон Тикарам (Phylo Percadium), Эрион Бакаре (Greeghan), Мария Дойл Кеннеди (Aleksa)

Описание:
Юпитер Джонс родилась под ночным небом, и все знаки предсказывали, что девочке предстоят великие свершения. Юпитер выросла и каждый день видит во сне звезды, но просыпается в жесткой реальности, где она работает уборщицей и моет туалеты. Личная жизнь Юпитер тоже оставляет желать лучшего, пока девушка не встречает Кейна. Кейн, бывший военный охотник, прибывает на Землю, чтобы отыскать Юпитер и раскрыть девушке ее истинное предназначение. Благодаря своим генетическим особенностям Юпитер становится претенденткой невероятного наследия, способного изменить равновесие во Вселенной.

  • Мировая премьера:27 января 2015

    ТЕХ.ДАННЫЕ:
    Качество: HDRip
    Формат: AVI
    Видео кодек: XviD
    Аудио кодек: AC3
    Видео: XviD, 720x304 (2.35:1), 1908 kbps, 23,976 fps, 0,347 bpp
    Аудио: AC3 / 5.1 / 48 kHz / 384 kbps / 16 bit



    Код:

    General
    Complete name                            : D:\Торенты\B0Cx0zhdeHie.Up1teP.2015.HDRip.2100Mb.avi
    Format                                   : AVI
    Format/Info                              : Audio Video Interleave
    File size                                : 2.05 GiB
    Duration                                 : 2h 7mn
    Overall bit rate                         : 2 304 Kbps
    Writing application                      : VirtualDubMod 1.5.10.3 | www.virtualdub-fr.org || (build 2550/release)
    Writing library                          : VirtualDubMod build 2550/release

    Video
    ID                                       : 0
    Format                                   : MPEG-4 Visual
    Format profile                           : Advanced [email protected]
    Format settings, BVOP                    : 2
    Format settings, QPel                    : No
    Format settings, GMC                     : No warppoints
    Format settings, Matrix                  : Default (MPEG)
    Codec ID                                 : XVID
    Codec ID/Hint                            : XviD
    Duration                                 : 2h 7mn
    Bit rate                                 : 1908 Kbps
    Width                                    : 720 pixels
    Height                                   : 304 pixels
    Display aspect ratio                     : 2.35:1
    Frame rate                               : 23.976 fps
    Color space                              : YUV
    Chroma subsampling                       : 4:2:0
    Bit depth                                : 8 bits
    Scan type                                : Progressive
    Compression mode                         : Lossy
    Bits/(Pixel*Frame)                       : 0.347
    Stream size                              : 1.62 GiB (79%)
    Writing library                          : XviD 1.2.1 (UTC 2008-12-04)

    Audio
    ID                                       : 1
    Format                                   : AC-3
    Format/Info                              : Audio Coding 3
    Mode extension                           : CM (complete main)
    Codec ID                                 : 2000
    Duration                                 : 2h 7mn
    Bit rate mode                            : Constant
    Bit rate                                 : 384 Kbps
    Channel(s)                               : 6 channels
    Channel positions                        : Front: L C R, Side: L R, LFE
    Sampling rate                            : 48.0 KHz
    Bit depth                                : 16 bits
    Compression mode                         : Lossy
    Stream size                              : 350 MiB (17%)
    Alignment                                : Split accross interleaves

    Скриншоты:


    © Оформление by Ворон
    freetor.icu



  • Скачать Восхождение Юпитер через торрент https://pic1.kartinco.top/images/61/ordi9.jpg Скачать, смотреть онлайн Восхождение Юпитер бесплантно в хорошем качестве Описание: Юпитер Джонс родилась под ночным небом, и все знаки предсказывали, что девочке предстоят великие свершения. Юпитер выросла и ... 9.7 10 45
    Торрент: Зарегистрирован [2015-09-22 08:08] · скачан: 162 раз
    Статус: √ проверено
    Размер: 2.05 GB
    Как cкачать? Как скачать Восхождение Юпитер через торрент | UTorrent

    % Раздел Тема Автор DL S | L
    Фильмы с авторской озвучкой [ 1.46 GB ] Восхождение Юпитер / Jupiter Ascending [2015 BDRip] [AVO] killermax2013 Скачать
    1 | 0
    Фильмы (HD 720p, 1080p) (48-60 fps) [ 11.64 GB ] Восхождение Юпитер / Jupiter Ascending [2015 BDRip 1080p 60 fps] DUB [] bober100 Скачать
    2 | 0
    Ultra HD (UHD: 2K, 4K, 8K) — видео сверхвысокой чёткости [ 66.14 GB ] Восхождение Юпитер / Jupiter Ascending [2015 UHD BDRemux 2160p] 2xAVO+2xDUB bober100 Скачать
    1 | 0
    Ultra HD (UHD: 2K, 4K, 8K) — видео сверхвысокой чёткости [ 77.56 GB ] Восхождение Юпитер / Jupiter Ascending [2015 UHD Blu-ray 2160p] - [] sheker187 Скачать
    1 | 0
    3D Фильмы [ 16.83 GB ] Восхождение Юпитер [2015 BDrip 1080p] OverUnder / Вертикальная стереопара serega768 Скачать
    1 | 0
    Фильмы 2015 [DVDrip, WEB-DLRip, HDrip] [ 1.46 GB ] Восхождение Юпитер [2015 WEB-DLRip] ] White Smoke Скачать
    1 | 0
    Фильмы [HD 720p, 1080p] (Хороший звук DUB, MVO) [ 4.37 GB ] Восхождение Юпитер [2015 BDRip 720p] DUB potroks Скачать
    2 | 0

    28-11-2019 20:33  

    Отключить всю рекламу на сайте

    10-05-2015 20:07 Восхождение Юпитер Скачать торрент  

    Очень слабый фильмецfreetor.icu



    12-05-2015 20:12 Восхождение Юпитер Скачать торрент  

    Наташка Королева! Молодая! Весьма!freetor.icu



    15-05-2015 13:53 Восхождение Юпитер Скачать торрент  

    Полнейший бред ! Фильм ни о чём ! Такой ерунды давно не приходилось смотреть! Не зря сборы фильма еле еле покрыли производственный бюджет .freetor.icu



      Дорогой пользователь! Огромная просьба, поблагодарите релизера, оцените раздачу и оставьте свои комментарий, если Вы скачали Восхождение Юпитер через торрент бесплатно!
      Комментировать посты могут только пользователи прошедшие не сложную регистрацию
      Показать сообщения:    

      Восхождение Юпитер через торрент
      Скачать бесплатно Восхождение Юпитер
      Восхождение Юпитер скачать торрент
      Восхождение Юпитер смотреть онлайн
      Cкачать фильм Восхождение Юпитер бесплатно
      Восхождение Юпитер скачать торрент в хорошем качестве
      Восхождение Юпитер смотреть онлайн бесплатно в хорошем качестве


      Вы не можете начинать темы
      Вы не можете отвечать на сообщения
      Вы не можете редактировать свои сообщения
      Вы не можете удалять свои сообщения
      Вы не можете голосовать в опросах
      Вы не можете прикреплять файлы к сообщениям
      Вы можете скачивать файлы