Присоединяйтесь к нам в Telegram!, здесь всегда актуальный адрес сайта, оперативная поддержка и многое другое!!

>

5.9

iTunes

7.4

iTunes

9.4

1 сезон

1

7.4

2 сезон

7.2

iTunes

7.3

1 сезон

13

6.1

iTunes

8.3

GOG

30

ULTIMATE

pack

9.9

Лицензия

ВАЖНО

ИГРА 18+

pack

7.3

RePack

MK11

7.7

RePack

jed

7.8

RePack

fifa19

8.5

RePack

RDR2

RePack

NEED FOR SPEED™ PAYBACK

5 сезон

9 сезон

Бесстыжие 9 сезон

Все сериалы

все сериалы на PB.wtf

RePack

FAR CRY 5

Anonymous, доброй ночи, мы катастрофически не успеваем собрать деньги на оплату серверов, помогите нам пожалуйста 5,10,15р., для нас важна любая помощь . В качестве благодарности мы отключим Вам всю рекламу на сайте (укажите свой ник в строку Ваше имя)!

×
  
Magnet ссылка

Фокус (Гленн Фикарра, Джон Рекуа) [2015 г., драма, мелодрама, комедия, криминал, HDRip-AVC, Дубляж [iTunes]] freetor.icu

Фокус через торрент freetor.icu

Размер: 2.15 GB | Добавлен: 6 лет 2 мес. назад | Торрент скачан:129 раз
Смотреть онлайн Фокус | Скачать    Ребята, помогите собрать деньги на оплату серверов!!!

16-05-2015 16:08 Фокус Скачать торрент  

Фокус
Год выпуска: 2015
Страна: США, Аргентина
Жанр: драма, мелодрама, комедия, криминал
Продолжительность: 104 мин. / 01:44
Перевод: Дубляж [iTunes]
Субтитры: Отсутствуют

Режиссер: Гленн Фикарра, Джон Рекуа
Продюссер: Дениз Ди Нови, Чарли Гоголак, Стэн Влодковски
Сценарий: Гленн Фикарра, Джон Рекуа

Бюджет: $50 100 000
Премьера в мире: 25 февраля 2015

IMDB 6.70 (44 758)


В ролях: Уилл Смит, Марго Робби, Адриан Мартинес, Джералд МакРэйни, Родриго Санторо, Б.Д. Вонг, Бреннан Браун, Роберт Тейлор, Дотан Бонен, Грифф Ферст, Всеволод Кузнецов, Татьяна Шитова, Константин Карасик, Тимофей Спивак, Сергей Смирнов

Описание: История об опытном мошеннике, который влюбляется в девушку, делающую первые шаги на поприще нелегального отъема средств у граждан. Отношения становятся для них проблемой, когда обнаруживается, что романтика мешает их нечестному бизнесу.

Качество: HDRip-AVC
Формат: MKV
Видео кодек: AVC
Аудио кодек: AC3
Видео: AVC, 1024x576 (16/9), 23.976 fps, 2 166 Kbps (0.149 bit/pixel)
Аудио#1: AC-3, 48.0 KHz, 6 ch, 384 Kbps, CBR (Russian)
Аудио#2: AC-3, 48.0 KHz, 6 ch, 384 Kbps, CBR (English)
Релиз от: vovan
скриншот   скриншот   скриншот  

Общее
Уникальный идентификатор : 193589624731767137436261541748726994713 (0x91A40169B77DE5899621CDA0C3BE9719)
Полное имя : D:\Шара\F0kys.2015.HDRip-AVC-001.mkv
Формат : Matroska
Версия формата : Version 2
Размер файла : 2,15 Гбайт
Продолжительность : 1 ч. 44 м.
Общий поток : 2934 Кбит/сек
Дата кодирования : UTC 2015-05-16 15:26:33
Программа кодирования : mkvmerge v7.7.0 ('Six Voices') 32bit built on Feb 28 2015 23:23:00
Библиотека кодирования : libebml v1.3.1 + libmatroska v1.4.2
DURATION : 01:44:44.192000000
NUMBER_OF_FRAMES : 196381
NUMBER_OF_BYTES : 301641216
_STATISTICS_WRITING_APP : mkvmerge v7.7.0 ('Six Voices') 32bit built on Feb 28 2015 23:23:00
_STATISTICS_WRITING_DATE_UTC : 2015-05-16 15:26:33
_STATISTICS_TAGS : BPS DURATION NUMBER_OF_FRAMES NUMBER_OF_BYTES

Видео
Идентификатор : 1
Формат : AVC
Формат/Информация : Advanced Video Codec
Профиль формата : [email protected]
Параметр CABAC формата : Да
Параметр ReFrames формата : 10 кадров
Идентификатор кодека : V_MPEG4/ISO/AVC
Продолжительность : 1 ч. 44 м.
Битрейт : 2166 Кбит/сек
Ширина : 1024 пикселя
Высота : 576 пикселей
Соотношение сторон : 16:9
Режим частоты кадров : Постоянный
Частота кадров : 23,976 кадра/сек
Цветовое пространство : YUV
Субдискретизация насыщенности : 4:2:0
Битовая глубина : 8 бит
Тип развёртки : Прогрессивная
Бит/(Пиксели*Кадры) : 0.153
Размер потока : 1,54 Гбайт (72%)
Библиотека кодирования : x264 core 146 r2538 121396c

Аудио #1
Идентификатор : 2
Формат : AC-3
Формат/Информация : Audio Coding 3
Расширение режима : CM (complete main)
Параметр Endianness формата : Big
Идентификатор кодека : A_AC3
Продолжительность : 1 ч. 44 м.
Вид битрейта : Постоянный
Битрейт : 384 Кбит/сек
Каналы : 6 каналов
Расположение каналов : Front: L C R, Side: L R, LFE
Частота : 48,0 КГц
Битовая глубина : 16 бит
Метод сжатия : С потерями
Размер потока : 288 Мбайт (13%)
Язык : Russian
Default : Да
Forced : Нет

Аудио #2
Идентификатор : 3
Формат : AC-3
Формат/Информация : Audio Coding 3
Расширение режима : CM (complete main)
Параметр Endianness формата : Big
Идентификатор кодека : A_AC3
Продолжительность : 1 ч. 44 м.
Вид битрейта : Постоянный
Битрейт : 384 Кбит/сек
Каналы : 6 каналов
Расположение каналов : Front: L C R, Side: L R, LFE
Частота : 48,0 КГц
Битовая глубина : 16 бит
Метод сжатия : С потерями
Размер потока : 288 Мбайт (13%)
Язык : English
Default : Нет
Forced : Нет

Меню
00:00:00.000 : en:00:00:00.000
00:09:17.974 : en:00:09:17.974
00:18:55.217 : en:00:18:55.217
00:30:22.904 : en:00:30:22.904
00:40:56.079 : en:00:40:56.079
00:49:16.370 : en:00:49:16.370
01:00:10.482 : en:01:00:10.482
01:11:02.758 : en:01:11:02.758
01:20:27.489 : en:01:20:27.489
01:28:33.892 : en:01:28:33.892
01:39:19.620 : en:01:39:19.620


Фокус скачать торрент


freetor.icu



Скачать Фокус через торрент http://i4.imageban.ru/out/2015/05/13/ceb6cab8607bb7252622a09196a076b3.jpg Скачать, смотреть онлайн Фокус бесплантно в хорошем качестве Описание: История об опытном мошеннике, который влюбляется в девушку, делающую первые шаги на поприще нелегального отъема средств у ... 9.8 10 12
Торрент: Зарегистрирован [2015-09-22 08:01] · скачан: 129 раз
Статус: √ проверено
Размер: 2.15 GB
Как cкачать? Как скачать Фокус через торрент | UTorrent

% Раздел Тема Автор DL S | L
Ultra HD (UHD: 2K, 4K, 8K) — видео сверхвысокой чёткости [ 23.07 GB ] Фокус / Focus [2014 UHD WEBRip 2160p] DUB + AVO [Гаврилов] sheker187 Скачать
1 | 0
Детективы, Боевики, Триллеры [ 395 MB ] Джеймс Хедли Чейз - Фокусница [Александр Хошабаев 2020 96 kbps MP3] urapavel Скачать
1 | 0
Ultra HD (UHD: 2K, 4K, 8K) — видео сверхвысокой чёткости [ 66.47 GB ] Фокус-покус / Hocus Pocus [1993 UHD BDRemux 2160p] 3xMVO+2xDVO+2xAVO bober100 Скачать
1 | 0
Фильмы [HD 720p, 1080p] (Хороший звук DUB, MVO) [ 5.75 GB ] Фокус / Focus [2015 BDRip 720p от _denis_100 / NNNB] DUB AVO + Original Eng +Sub 2xRus 3xEng _denis_100 Скачать
1 | 0
Азиатские фильмы [ 8.57 GB ] Нулевой фокус / Zero no shôten [1961 BDRip 1080p by msltel] VO msltel Скачать
1 | 0
Азиатские фильмы [ 2.75 GB ] Нулевой фокус / Zero no shôten [1961 BDRip 720p by msltel] VO msltel Скачать
1 | 0
Документальные фильмы и телепередачи [ 4 GB ] Смертельная магия / Death by Magic / Сезон: 1 / Серии: 1-8 из 8 [2018 документальный шоу фокусы WEB-DLRip] [MVO] killermax2013 Скачать
1 | 0

28-11-2019 20:33  

Отключить всю рекламу на сайте

    Дорогой пользователь! Огромная просьба, поблагодарите релизера, оцените раздачу и оставьте свои комментарий, если Вы скачали Фокус через торрент бесплатно!
    Комментировать посты могут только пользователи прошедшие не сложную регистрацию
    Показать сообщения:    

    Фокус через торрент
    Скачать бесплатно Фокус
    Фокус скачать торрент
    Фокус смотреть онлайн
    Cкачать фильм Фокус бесплатно
    Фокус скачать торрент в хорошем качестве
    Фокус смотреть онлайн бесплатно в хорошем качестве


    Вы не можете начинать темы
    Вы не можете отвечать на сообщения
    Вы не можете редактировать свои сообщения
    Вы не можете удалять свои сообщения
    Вы не можете голосовать в опросах
    Вы не можете прикреплять файлы к сообщениям
    Вы можете скачивать файлы