Присоединяйтесь к нам в Telegram!, здесь всегда актуальный адрес сайта, оперативная поддержка и многое другое!!

>

5.9

iTunes

7.4

iTunes

9.4

1 сезон

1

7.4

2 сезон

7.2

iTunes

7.3

1 сезон

13

6.1

iTunes

8.3

GOG

30

ULTIMATE

pack

9.9

Лицензия

ВАЖНО

ИГРА 18+

pack

7.3

RePack

MK11

7.7

RePack

jed

7.8

RePack

fifa19

8.5

RePack

RDR2

RePack

NEED FOR SPEED™ PAYBACK

5 сезон

9 сезон

Бесстыжие 9 сезон

Все сериалы

все сериалы на PB.wtf

RePack

FAR CRY 5

Anonymous, добрый вечер, мы катастрофически не успеваем собрать деньги на оплату серверов, помогите нам пожалуйста 5,10,15р., для нас важна любая помощь . В качестве благодарности мы отключим Вам всю рекламу на сайте (укажите свой ник в строку Ваше имя)!

×
  
Magnet ссылка

Фокус (Гленн Фикарра, Джон Рекуа) [2015 г., драма, мелодрама, комедия, криминал, HDRip, Дубляж "Лицензия"] freetor.icu

Фокус через торрент freetor.icu

Размер: 2.16 GB | Добавлен: 6 лет 2 мес. назад | Торрент скачан:343 раза
Смотреть онлайн Фокус | Скачать    Ребята, помогите собрать деньги на оплату серверов!!!

14-05-2015 18:07 Фокус Скачать торрент  

Фокус
Год выпуска: 2015
Страна: США, Аргентина / Kramer & Sigman Films, RatPac-Dune Entertainment, Zaftig Films
Жанр: драма, мелодрама, комедия, криминал
Продолжительность: 01:44:44
Перевод: Дубляж (Лицензия)

Режиссер: Гленн Фикарра, Джон Рекуа

IMDB 6.70 (43 556)


В ролях: Уилл Смит, Марго Робби, Адриан Мартинес, Джералд МакРэйни, Родриго Санторо, Б.Д. Вонг, Бреннан Браун, Роберт Тейлор, Дотан Бонен, Грифф Ферст

Описание: История об опытном мошеннике, который влюбляется в девушку, делающую первые шаги на поприще нелегального отъема средств у граждан. Отношения становятся для них проблемой, когда обнаруживается, что романтика мешает их нечестному бизнесу.

Качество: HDRip
Формат: AVI
Видео кодек: XviD
Аудио кодек: AC3
Видео: 720x400 (1.80:1), 23.976 fps, XviD build 50, 2495 Кбит/сек kbps avg, 0.36 bit/pixel
Аудио: 48 kHz, AC3 Dolby Digital, 3/2 (L,C,R,l,r) + LFE ch, ~448 kbps

Общее
Полное имя : F:\кино\Фокус.2015.HDRip.avi
Формат : AVI
Формат/Информация : Audio Video Interleave
Профиль формата : OpenDML
Размер файла : 2,16 Гбайт
Продолжительность : 1 ч. 44 м.
Общий поток : 2955 Кбит/сек
Программа кодирования : VirtualDubMod 1.5.10.3 | www.virtualdub-fr.org || (build 2550/release)
Библиотека кодирования : VirtualDubMod build 2550/release

Видео
Идентификатор : 0
Формат : MPEG-4 Visual
Профиль формата : Advanced [email protected]
Параметр BVOP формата : 2
Параметр QPel формата : Нет
Параметр GMC формата : Без точки перехода
Параметр матрицы формата : Default (H.263)
Идентификатор кодека : XVID
Идентификатор кодека/Подсказка : XviD
Продолжительность : 1 ч. 44 м.
Битрейт : 2495 Кбит/сек
Ширина : 720 пикселей
Высота : 400 пикселей
Соотношение сторон : 16:9
Частота кадров : 23,976 кадра/сек
Цветовое пространство : YUV
Субдискретизация насыщенности : 4:2:0
Битовая глубина : 8 бит
Тип развёртки : Прогрессивная
Метод сжатия : С потерями
Бит/(Пиксели*Кадры) : 0.361
Размер потока : 1,83 Гбайт (84%)
Библиотека кодирования : XviD 1.2.1 (UTC 2008-12-04)

Аудио
Идентификатор : 1
Формат : AC-3
Формат/Информация : Audio Coding 3
Расширение режима : CM (complete main)
Параметр Endianness формата : Big
Идентификатор кодека : 2000
Продолжительность : 1 ч. 44 м.
Вид битрейта : Постоянный
Битрейт : 448 Кбит/сек
Каналы : 6 каналов
Расположение каналов : Front: L C R, Side: L R, LFE
Частота : 48,0 КГц
Битовая глубина : 16 бит
Метод сжатия : С потерями
Размер потока : 336 Мбайт (15%)
Выравнивание : Разделение по промежуткам
Продолжительность промежутка : 42 мс. (1,00 видеокадр)
Время предзагрузки промежутка : 500 мс.

freetor.icu



Скачать Фокус через торрент https://pic1.kartinco.top/images/10/qsl77.jpg Скачать, смотреть онлайн Фокус бесплантно в хорошем качестве Описание: История об опытном мошеннике, который влюбляется в девушку, делающую первые шаги на поприще нелегального отъема средств у ... 9.7 10 72
Торрент: Зарегистрирован [2015-09-22 08:00] · скачан: 343 раз
Статус: √ проверено
Размер: 2.16 GB
Как cкачать? Как скачать Фокус через торрент | UTorrent

% Раздел Тема Автор DL S | L
Ultra HD (UHD: 2K, 4K, 8K) — видео сверхвысокой чёткости [ 23.07 GB ] Фокус / Focus [2014 UHD WEBRip 2160p] DUB + AVO [Гаврилов] sheker187 Скачать
1 | 0
Детективы, Боевики, Триллеры [ 395 MB ] Джеймс Хедли Чейз - Фокусница [Александр Хошабаев 2020 96 kbps MP3] urapavel Скачать
3 | 0
Ultra HD (UHD: 2K, 4K, 8K) — видео сверхвысокой чёткости [ 66.47 GB ] Фокус-покус / Hocus Pocus [1993 UHD BDRemux 2160p] 3xMVO+2xDVO+2xAVO bober100 Скачать
1 | 0
Фильмы [HD 720p, 1080p] (Хороший звук DUB, MVO) [ 5.75 GB ] Фокус / Focus [2015 BDRip 720p от _denis_100 / NNNB] DUB AVO + Original Eng +Sub 2xRus 3xEng _denis_100 Скачать
2 | 0
Азиатские фильмы [ 8.57 GB ] Нулевой фокус / Zero no shôten [1961 BDRip 1080p by msltel] VO msltel Скачать
1 | 0
Азиатские фильмы [ 2.75 GB ] Нулевой фокус / Zero no shôten [1961 BDRip 720p by msltel] VO msltel Скачать
1 | 0
Документальные фильмы и телепередачи [ 4 GB ] Смертельная магия / Death by Magic / Сезон: 1 / Серии: 1-8 из 8 [2018 документальный шоу фокусы WEB-DLRip] [MVO] killermax2013 Скачать
1 | 0


Последний раз редактировалось: coc900 (2015-05-19 18:14), всего редактировалось 1 раз

28-11-2019 20:33  

Отключить всю рекламу на сайте

19-05-2015 18:11 Фокус Скачать торрент  

Релиз обновлен!Просьба перекачать торрент файл! freetor.icu



19-05-2015 19:17 Фокус Скачать торрент  


  
Вдруг эта лучше)freetor.icu



19-05-2015 20:14 Фокус Скачать торрент  

Фильм хреньfreetor.icu



20-05-2015 17:19 Фокус Скачать торрент  

MeMoRiSe, Постер хорош конечно!freetor.icu



24-05-2015 22:12 Фокус Скачать торрент  

нормальный фильм. смотреть можноfreetor.icu



26-05-2015 05:20 Фокус Скачать торрент  

Тупой фильм. Подобные фильмы должны быть с непредсказуемой развязкой. В итоге я через 20 минут просмотра уже примерно знал каков будет финал.freetor.icu



03-06-2015 10:47 Фокус Скачать торрент  

Не очень, совсем не цепляет..freetor.icu



05-06-2015 11:18 Фокус Скачать торрент  

+ класс дассссссссссссссссссссfreetor.icu



    Дорогой пользователь! Огромная просьба, поблагодарите релизера, оцените раздачу и оставьте свои комментарий, если Вы скачали Фокус через торрент бесплатно!
    Комментировать посты могут только пользователи прошедшие не сложную регистрацию
    Показать сообщения:    

    Фокус через торрент
    Скачать бесплатно Фокус
    Фокус скачать торрент
    Фокус смотреть онлайн
    Cкачать фильм Фокус бесплатно
    Фокус скачать торрент в хорошем качестве
    Фокус смотреть онлайн бесплатно в хорошем качестве


    Вы не можете начинать темы
    Вы не можете отвечать на сообщения
    Вы не можете редактировать свои сообщения
    Вы не можете удалять свои сообщения
    Вы не можете голосовать в опросах
    Вы не можете прикреплять файлы к сообщениям
    Вы можете скачивать файлы