Присоединяйтесь к нам в Telegram!, здесь всегда актуальный адрес сайта, оперативная поддержка и многое другое!!

>

5.9

iTunes

7.4

iTunes

9.4

1 сезон

1

7.4

2 сезон

7.2

iTunes

7.3

1 сезон

13

6.1

iTunes

8.3

Пиратка

30

ULTIMATE

pack

9.9

Лицензия

ВАЖНО

ИГРА 18+

pack

7.3

RePack

MK11

7.7

RePack

jed

7.8

RePack

fifa19

8.5

RePack

RDR2

RePack

NEED FOR SPEED™ PAYBACK

5 сезон

9 сезон

Бесстыжие 9 сезон

Все сериалы

все сериалы на PB.wtf

RePack

FAR CRY 5

Anonymous, доброй ночи, мы катастрофически не успеваем собрать деньги на оплату серверов, помогите нам пожалуйста 5,10,15р., для нас важна любая помощь . В качестве благодарности мы отключим Вам всю рекламу на сайте (укажите свой ник в строку Ваше имя)!

×
  
Magnet ссылка

Пятьдесят оттенков серого (Сэм Тейлор-Джонсон ) [2015, мелодрама, WEB-DLRip, Дубляж iTunes] freetor.icu

Пятьдесят оттенков серого через торрент freetor.icu

Размер: 1.46 GB | Добавлен: 6 лет 2 мес. назад | Торрент скачан:445 раз
Смотреть онлайн Пятьдесят оттенков серого | Скачать    Ребята, помогите собрать деньги на оплату серверов!!!

08-04-2015 22:56 Пятьдесят оттенков серого Скачать торрент  

Пятьдесят оттенков серого

Год выпуска: 2015
Страна: США
Жанр: мелодрама
Продолжительность: 02:05:12
Перевод: Дубляж - iTunes
Режиссер: Сэм Тейлор-Джонсон
В ролях: Джейми Дорнан (Christian Grey), Дакота Джонсон (Anastasia Steele), Люк Граймс (Elliot Grey), Виктор Расук (José), Элоиза Мамфорд (Kate), Марша Гей Харден (Mrs. Grey), Рита Ора (Mia Grey), Макс Мартини (Taylor), Каллум Кит Ренни (Ray), Дженнифер Или (Carla), Дилан Нил (Bob), Эндрю Эйрли (Mr. Grey)
Описание:
Анастейша Стил - скромная студентка, живущая вместе с близкой подругой-сокурсницей Кейт. За неделю до выпускного в университете, Анастейша, по просьбе заболевшей Кейт заменить её, берёт интервью у молодого красавца-миллиардера Кристиана Грея. Интервью складывается не очень удачно, и Анастейша не думает, что они когда-либо встретятся вновь. Неожиданно Грей появляется в хозяйственном магазине, где девушка работает продавцом. Их знакомство продолжается, и Анастейша постепенно узнаёт о тайных сексуальных увлечениях богача...
Рейтинг:

MPAA: R - Лицам до 17 лет обязательно присутствие взрослого
Качество: WEB-DLRip
Формат: AVI
Видео кодек: XviD
Аудио кодек: AC3
Видео: XviD, 720x304 (2.35:1), 1276 kbps, 23,976 fps, 0,243 bpp
Аудио: AC3 / 5.1 / 48 kHz / 384 kbps / 16 bit

Код:

General
Complete name                            : C:\Users\Admin\Downloads\50.0ttenk0v.Ser0go.2015.D.WEB-DLRip.avi
Format                                   : AVI
Format/Info                              : Audio Video Interleave
File size                                : 1.46 GiB
Duration                                 : 2h 5mn
Overall bit rate                         : 1 670 Kbps
Writing application                      : VirtualDubMod 1.5.10.3 | www.virtualdub-fr.org || (build 2550/release)
Writing library                          : VirtualDubMod build 2550/release

Video
ID                                       : 0
Format                                   : MPEG-4 Visual
Format profile                           : Advanced [email protected]
Format settings, BVOP                    : 2
Format settings, QPel                    : No
Format settings, GMC                     : No warppoints
Format settings, Matrix                  : Default (MPEG)
Codec ID                                 : XVID
Codec ID/Hint                            : XviD
Duration                                 : 2h 5mn
Bit rate                                 : 1 277 Kbps
Width                                    : 720 pixels
Height                                   : 304 pixels
Display aspect ratio                     : 2.35:1
Frame rate                               : 23.976 fps
Color space                              : YUV
Chroma subsampling                       : 4:2:0
Bit depth                                : 8 bits
Scan type                                : Progressive
Compression mode                         : Lossy
Bits/(Pixel*Frame)                       : 0.243
Stream size                              : 1.12 GiB (76%)
Writing library                          : XviD 1.2.1 (UTC 2008-12-04)

Audio
ID                                       : 1
Format                                   : AC-3
Format/Info                              : Audio Coding 3
Mode extension                           : CM (complete main)
Codec ID                                 : 2000
Duration                                 : 2h 5mn
Bit rate mode                            : Constant
Bit rate                                 : 384 Kbps
Channel(s)                               : 6 channels
Channel positions                        : Front: L C R, Side: L R, LFE
Sampling rate                            : 48.0 KHz
Bit depth                                : 16 bits
Compression mode                         : Lossy
Stream size                              : 344 MiB (23%)
Alignment                                : Split accross interleaves
Interleave, duration                     : 42 ms (1.00 video frame)
Interleave, preload duration             : 500 ms

freetor.icu



Скачать Пятьдесят оттенков серого через торрент http://i65.fastpic.ru/big/2015/0409/4c/3aa2d5a3e613db7450cbc89b5d16344c.jpg Скачать, смотреть онлайн Пятьдесят оттенков серого бесплантно в хорошем качестве Описание: Анастейша Стил - скромная студентка, живущая вместе с близкой подругой-сокурсницей Кейт. За неделю до выпускного в университете, ... 8.2 10 46
Info! Золотая раздача, скачанное не засчитывается.
Торрент: Зарегистрирован [2015-09-22 07:59] · скачан: 445 раз
Статус: √ проверено
Размер: 1.46 GB
Как cкачать? Как скачать Пятьдесят оттенков серого через торрент | UTorrent

% Раздел Тема Автор DL S | L
Фильмы 2015 [DVDrip, WEB-DLRip, HDrip] [ 2.18 GB ] Пятьдесят оттенков серого [2015 BDRip-AVC] [Расширенная версия] DUB potroks Скачать
2 | 0
Фильмы 2015 [DVDrip, WEB-DLRip, HDrip] [ 1.5 GB ] Пятьдесят оттенков серого [2015 BDRip-AVC] [Расширенная версия] DUB potroks Скачать
1 | 0
Ultra HD (UHD: 2K, 4K, 8K) — видео сверхвысокой чёткости [ 43.68 GB ] Пятьдесят оттенков серого / Fifty Shades of Grey [2015 BDRemux 2160p] DUB [Расширенная версия] [ BD CEE] bober100 Скачать
1 | 0
Фильмы [HD 720p, 1080p] (Хороший звук DUB, MVO) [ 11.84 GB ] Пятьдесят оттенков серого [2015 BDRip 1080p] Dub + Original + Sub [Расширенная версия] Seedtank Скачать
1 | 0
Фильмы 2015 [DVDrip, WEB-DLRip, HDrip] [ 1.41 GB ] Пятьдесят оттенков серого [2015 WEB-DLRip-AVC] ] От R.G. PiratFilms White Smoke Скачать
1 | 0
Фильмы (WEB-DL 720p, 1080p) [ 4.46 GB ] Пятьдесят оттенков серого [2015 WEB-DL 1080p] ] White Smoke Скачать
1 | 0
Фильмы 2015 [DVDrip, WEB-DLRip, HDrip] [ 2.18 GB ] Пятьдесят оттенков серого [2015 WEB-DLRip ""] coc900 Скачать
1 | 0

28-11-2019 20:33  

Отключить всю рекламу на сайте

09-04-2015 02:18 Пятьдесят оттенков серого Скачать торрент  

Нормальный такой жесткач! sarcasticfreetor.icu



09-04-2015 02:59 Пятьдесят оттенков серого Скачать торрент  

берёт интервью у молодого красавца-миллиардера Кристиана Геяfreetor.icu



09-04-2015 16:48 Пятьдесят оттенков серого Скачать торрент  

На троечку.freetor.icu



11-04-2015 05:01 Пятьдесят оттенков серого Скачать торрент  

это как сумерки, только часть "вторая" ..девчачья фантазияfreetor.icu



26-03-2016 06:32 Пятьдесят оттенков серого Скачать торрент  

после кинотеатра думала, фильм на разок... захотелось пересмотреть после 50 оттенков черного)freetor.icu



    Дорогой пользователь! Огромная просьба, поблагодарите релизера, оцените раздачу и оставьте свои комментарий, если Вы скачали Пятьдесят оттенков серого через торрент бесплатно!
    Комментировать посты могут только пользователи прошедшие не сложную регистрацию
    Показать сообщения:    

    Пятьдесят оттенков серого через торрент
    Скачать бесплатно Пятьдесят оттенков серого
    Пятьдесят оттенков серого скачать торрент
    Пятьдесят оттенков серого смотреть онлайн
    Cкачать фильм Пятьдесят оттенков серого бесплатно
    Пятьдесят оттенков серого скачать торрент в хорошем качестве
    Пятьдесят оттенков серого смотреть онлайн бесплатно в хорошем качестве


    Вы не можете начинать темы
    Вы не можете отвечать на сообщения
    Вы не можете редактировать свои сообщения
    Вы не можете удалять свои сообщения
    Вы не можете голосовать в опросах
    Вы не можете прикреплять файлы к сообщениям
    Вы можете скачивать файлы