Anonymous, доброе утро, присоединяйтесь к нам в Telegram!, здесь всегда актуальный адрес сайта, оперативная поддержка и многое другое!

>

5.6

iTunes

7.4

MVO

5.7

MVO

1

7.7

1 сезон

6.8

iTunes

7.3

1 сезон

13

6.7

1 сезон

8.3

RePack

30

ULTIMATE

pack

9.9

Лицензия

ВАЖНО

ИГРА 18+

pack

7.3

RePack

MK11

7.7

RePack

jed

7.8

RePack

fifa19

8.5

RePack

RDR2

RePack

NEED FOR SPEED™ PAYBACK

4 сезон

9 сезон

Бесстыжие 9 сезон

Все сериалы

все сериалы на PB.wtf

RePack

FAR CRY 5

Anonymous, доброе утро, мы катастрофически не успеваем собрать деньги на оплату серверов, помогите нам пожалуйста 5,10,15р., для нас важна любая помощь . В качестве благодарности мы отключим Вам всю рекламу на сайте (укажите свой ник в строку Ваше имя)!

×
  
Magnet ссылка

Далеко от Москвы (Александр Столпер) [1950, СССР, драма, DVDRip от AVP Studio] freetor.icu

Далеко от Москвы через торрент freetor.icu

Размер: 1.46 GB | Добавлен: 6 лет назад | Торрент скачан:2 раза
Смотреть онлайн Далеко от Москвы | Скачать    Ребята, помогите собрать деньги на оплату серверов!!!

21-09-2015 13:09 Далеко от Москвы Скачать торрент  

Далеко от Москвы
Страна: СССР
Производство: Мосфильм

Жанр: драма
Год выпуска: 1950
Продолжительность: 01:40:01

Перевод: Не требуется
Cубтитры: нет
Оригинальная аудиодорожка: русский

Режиссер: Александр Столпер

В ролях:
Николай Охлопков, Лев Свердлин, Павел Кадочников, Валериан Квачадзе, Александр Ханов, Григорий Кириллов, Татьяна Махова (II), Иветта Киселёва, Владимир Владиславский, Сергей Столяров, Марк Бернес, Леонид Кмит, Степан Крылов, Павел Оленев, Владимир Соловьёв, Виктор Бубнов, Сергей Гурзо (старший), П. Иванов...
Полный список актёров

Описание:
По одноименному роману Василия Ажаева.
Около Красноярска прокладывается нефтепровод. Идет война. Поэтому есть среди молодых специалистов такие, которые чувствуют себя неуместными на поле трудовых сражений. Некоторым задача провести трубопровод в кратчайшие сроки кажется невозможной и ненужной...

Источник: DVD5 R5
Качество видео: DVDRip
Формат видео: AVI

Видео: 688x512 (4:3), 25 fps, XviD ~ 1888 kbps avg, 0.214 bit/pixel
Аудио: 48 kHz, Dolby Digital AC3 2.0, 192 kbps

Раздача от:
Общее
Полное имя : Daleko.ot.Moskvy.1950.DVDRip_[New-team]_by_AVP_Studio.avi
Формат : AVI
Формат/Информация : Audio Video Interleave
Размер файла : 1,46 Гбайт
Продолжительность : 1 ч. 40 м.
Общий поток : 2089 Кбит/сек
Программа кодирования : VirtualDubMod 1.5.10.3 | www.virtualdub-fr.org || (build 2550/release)
Библиотека кодирования : VirtualDubMod build 2550/release

Видео
Идентификатор : 0
Формат : MPEG-4 Visual
Профиль формата : Advanced Simple@L5
Параметр BVOP формата : 1
Параметр QPel формата : Нет
Параметр GMC формата : Без точки перехода
Параметр матрицы формата : Выборочная
Идентификатор кодека : XVID
Идентификатор кодека/Подсказка : XviD
Продолжительность : 1 ч. 40 м.
Битрейт : 1888 Кбит/сек
Ширина : 688 пикселей
Высота : 512 пикселей
Соотношение сторон : 4:3
Частота кадров : 25,000 кадров/сек
Цветовое пространство : YUV
Субдискретизация насыщенности : 4:2:0
Битовая глубина : 8 бит
Тип развёртки : Прогрессивная
Метод сжатия : С потерями
Бит/(Пиксели*Кадры) : 0.214
Размер потока : 1,32 Гбайт (90%)
Библиотека кодирования : XviD 73

Аудио
Идентификатор : 1
Формат : AC-3
Формат/Информация : Audio Coding 3
Расширение режима : CM (complete main)
Параметр Endianness формата : Big
Идентификатор кодека : 2000
Продолжительность : 1 ч. 40 м.
Вид битрейта : Постоянный
Битрейт : 192 Кбит/сек
Каналы : 2 канала
Расположение каналов : Front: L R
Частота : 48,0 КГц
Метод сжатия : С потерями
Размер потока : 137 Мбайт (9%)
Выравнивание : Разделение по промежуткам
Продолжительность промежутка : 40 мс. (1,00 видеокадр)
Время предзагрузки промежутка : 500 мс
freetor.icu



Скачать Далеко от Москвы через торрент http://s017.radikal.ru/i405/1509/a6/823a13c5df85.png Скачать, смотреть онлайн Далеко от Москвы бесплантно в хорошем качестве Описание:По одноименному роману Василия Ажаева.Около Красноярска прокладывается нефтепровод. Идет война. Поэтому есть среди молодых ... 10 10 1
Info! Золотая раздача, скачанное не засчитывается.
Торрент: Зарегистрирован [2015-09-21 13:09] · скачан: 2 раз
Статус: √ проверено
Размер: 1.46 GB
Как cкачать? Как скачать Далеко от Москвы через торрент | UTorrent

% Раздел Тема Автор DL S | L
Кино СССР [ 1.46 GB ] Далеко от Москвы [1950 СССР DVDRip-AVC от AVP Studio] AVP Studio Скачать
1 | 0
Кино СССР [ 746 MB ] Далеко от Москвы [1950 СССР DVDRip от AVP Studio] AVP Studio Скачать
1 | 0

28-11-2019 20:33  

Отключить всю рекламу на сайте

    Дорогой пользователь! Огромная просьба, поблагодарите релизера, оцените раздачу и оставьте свои комментарий, если Вы скачали Далеко от Москвы через торрент бесплатно!
    Комментировать посты могут только пользователи прошедшие не сложную регистрацию
    Показать сообщения:    

    Далеко от Москвы через торрент
    Скачать бесплатно Далеко от Москвы
    Далеко от Москвы скачать торрент
    Далеко от Москвы смотреть онлайн
    Cкачать фильм Далеко от Москвы бесплатно
    Далеко от Москвы скачать торрент в хорошем качестве
    Далеко от Москвы смотреть онлайн бесплатно в хорошем качестве


    Вы не можете начинать темы
    Вы не можете отвечать на сообщения
    Вы не можете редактировать свои сообщения
    Вы не можете удалять свои сообщения
    Вы не можете голосовать в опросах
    Вы не можете прикреплять файлы к сообщениям
    Вы можете скачивать файлы