Anonymous, доброе утро, присоединяйтесь к нам в Telegram!, здесь всегда актуальный адрес сайта, оперативная поддержка и многое другое!

>

5.6

iTunes

7.4

MVO

5.7

MVO

1

7.7

1 сезон

6.8

iTunes

7.3

1 сезон

13

6.7

1 сезон

8.3

RePack

30

ULTIMATE

pack

9.9

Лицензия

ВАЖНО

ИГРА 18+

pack

7.3

RePack

MK11

7.7

RePack

jed

7.8

RePack

fifa19

8.5

RePack

RDR2

RePack

NEED FOR SPEED™ PAYBACK

4 сезон

9 сезон

Бесстыжие 9 сезон

Все сериалы

все сериалы на PB.wtf

RePack

FAR CRY 5

Anonymous, доброе утро, мы катастрофически не успеваем собрать деньги на оплату серверов, помогите нам пожалуйста 5,10,15р., для нас важна любая помощь . В качестве благодарности мы отключим Вам всю рекламу на сайте (укажите свой ник в строку Ваше имя)!

×
  
Magnet ссылка

Щедрое лето (Борис Барнет) [1950, СССР, комедия, DVDRip от AVP Studio] freetor.icu

Щедрое лето через торрент freetor.icu

Размер: 1.46 GB | Добавлен: 6 лет назад | Торрент скачан:18 раз
Смотреть онлайн Щедрое лето | Скачать    Ребята, помогите собрать деньги на оплату серверов!!!

20-09-2015 13:36 Щедрое лето Скачать торрент  

Щедрое лето
Страна: СССР
Производство: Киевская киностудия

Жанр: комедия
Год выпуска: 1950
Продолжительность: 01:21:18

Перевод: Не требуется
Cубтитры: нет
Оригинальная аудиодорожка: русский

Режиссер: Борис Барнет

В ролях:
Николай Крючков, Нина Архипова, Михаил Кузнецов, Марианна Стриженова, Виктор Добровольский, Константин Сорокин, Муза Крепкогорская, Евгений Максимов, Антон Дунайский, Михаил Высоцкий, Алла Казанская, Виктория Германова, Георгий Гумилевский, Татьяна Барышева, Зоя Толбузина...
Полный список актёров

Описание:
После войны Петр Середа возвращается в родной колхоз, где председатель - его друг и однополчанин Назар, - и становится главным бухгалтером хозяйства. В то время, как полеводческие бригады добиваются успеха и получают высокую оценку своих работ от правительства, Петр без устали доказывает "размякшему" от славы Назару, что животноводство "под ударом", а финансовые дела бесконтрольно запущены. Председатель осознает свои промахи и "берет себя в руки".

Источник: DVD5 R5
Качество видео: DVDRip
Формат видео: AVI

Видео: 688x512 (4:3), 25 fps, XviD ~ 2112 kbps avg, 0.240 bit/pixel
Аудио: 48 kHz, Dolby Digital AC3 5.1, 448 kbps

Раздача от:
Общее
Полное имя : Shhedroe.leto.1950.DVDRip_[New-team]_by_AVP_Studio.avi
Формат : AVI
Формат/Информация : Audio Video Interleave
Размер файла : 1,46 Гбайт
Продолжительность : 1 ч. 21 м.
Общий поток : 2570 Кбит/сек
Программа кодирования : VirtualDubMod 1.5.10.3 | www.virtualdub-fr.org || (build 2550/release)
Библиотека кодирования : VirtualDubMod build 2550/release

Видео
Идентификатор : 0
Формат : MPEG-4 Visual
Профиль формата : Advanced Simple@L5
Параметр BVOP формата : 1
Параметр QPel формата : Нет
Параметр GMC формата : Без точки перехода
Параметр матрицы формата : Выборочная
Идентификатор кодека : XVID
Идентификатор кодека/Подсказка : XviD
Продолжительность : 1 ч. 21 м.
Битрейт : 2112 Кбит/сек
Ширина : 688 пикселей
Высота : 512 пикселей
Соотношение сторон : 4:3
Частота кадров : 25,000 кадров/сек
Цветовое пространство : YUV
Субдискретизация насыщенности : 4:2:0
Битовая глубина : 8 бит
Тип развёртки : Прогрессивная
Метод сжатия : С потерями
Бит/(Пиксели*Кадры) : 0.240
Размер потока : 1,20 Гбайт (82%)
Библиотека кодирования : XviD 73

Аудио
Идентификатор : 1
Формат : AC-3
Формат/Информация : Audio Coding 3
Расширение режима : CM (complete main)
Параметр Endianness формата : Big
Идентификатор кодека : 2000
Продолжительность : 1 ч. 21 м.
Вид битрейта : Постоянный
Битрейт : 448 Кбит/сек
Каналы : 6 каналов
Расположение каналов : Front: L C R, Side: L R, LFE
Частота : 48,0 КГц
Метод сжатия : С потерями
Размер потока : 261 Мбайт (17%)
Выравнивание : Разделение по промежуткам
Продолжительность промежутка : 40 мс. (1,00 видеокадр)
Время предзагрузки промежутка : 500 мс
freetor.icu



Скачать Щедрое лето через торрент http://i004.radikal.ru/1509/84/39c6818c0593.png Скачать, смотреть онлайн Щедрое лето бесплантно в хорошем качестве Описание:После войны Петр Середа возвращается в родной колхоз, где председатель - его друг и однополчанин Назар, - и становится главным ... 10 10 1
Торрент: Зарегистрирован [2015-09-20 13:36] · скачан: 18 раз
Статус: √ проверено
Размер: 1.46 GB
Как cкачать? Как скачать Щедрое лето через торрент | UTorrent

% Раздел Тема Автор DL S | L
Кино СССР [ 1.46 GB ] Щедрое лето [1950 СССР DVDRip-AVC от AVP Studio] AVP Studio Скачать
1 | 0
Кино СССР [ 745 MB ] Щедрое лето [1950 СССР DVDRip от AVP Studio] AVP Studio Скачать
1 | 0

28-11-2019 20:33  

Отключить всю рекламу на сайте

    Дорогой пользователь! Огромная просьба, поблагодарите релизера, оцените раздачу и оставьте свои комментарий, если Вы скачали Щедрое лето через торрент бесплатно!
    Комментировать посты могут только пользователи прошедшие не сложную регистрацию
    Показать сообщения:    

    Щедрое лето через торрент
    Скачать бесплатно Щедрое лето
    Щедрое лето скачать торрент
    Щедрое лето смотреть онлайн
    Cкачать фильм Щедрое лето бесплатно
    Щедрое лето скачать торрент в хорошем качестве
    Щедрое лето смотреть онлайн бесплатно в хорошем качестве


    Вы не можете начинать темы
    Вы не можете отвечать на сообщения
    Вы не можете редактировать свои сообщения
    Вы не можете удалять свои сообщения
    Вы не можете голосовать в опросах
    Вы не можете прикреплять файлы к сообщениям
    Вы можете скачивать файлы