Присоединяйтесь к нам в Telegram!, здесь всегда актуальный адрес сайта, оперативная поддержка и многое другое!!

>

5.9

iTunes

7.4

iTunes

9.4

1 сезон

1

7.4

2 сезон

7.2

iTunes

7.3

1 сезон

13

6.1

iTunes

8.3

Пиратка

30

ULTIMATE

pack

9.9

Лицензия

ВАЖНО

ИГРА 18+

pack

7.3

RePack

MK11

7.7

RePack

jed

7.8

RePack

fifa19

8.5

RePack

RDR2

RePack

NEED FOR SPEED™ PAYBACK

5 сезон

9 сезон

Бесстыжие 9 сезон

Все сериалы

все сериалы на PB.wtf

RePack

FAR CRY 5

Anonymous, доброй ночи, мы катастрофически не успеваем собрать деньги на оплату серверов, помогите нам пожалуйста 5,10,15р., для нас важна любая помощь . В качестве благодарности мы отключим Вам всю рекламу на сайте (укажите свой ник в строку Ваше имя)!

×
  
Magnet ссылка

Дальняя дорога (Джордж Тиллман мл. / George Tillman Jr.) [2015, драма, мелодрама, BDRip-AVC от potroks] DUB Лицензия freetor.icu

Дальняя дорога через торрент freetor.icu

Размер: 1.46 GB | Добавлен: 6 лет 2 мес. назад | Торрент скачан:183 раза
Смотреть онлайн Дальняя дорога | Скачать    Ребята, помогите собрать деньги на оплату серверов!!!

01-08-2015 18:25 Дальняя дорога Скачать торрент  

Дальняя дорога / The Longest Ride
Год выпуска: 2015
Страна: США / Fox 2000 Pictures, Temple Hill Entertainment
Жанр: драма, мелодрама
Продолжительность: 02:08:19
Перевод: Дубляж - [BD EUR]
Субтитры: русские (Forced), русские
Навигация по главам: есть
Режиссер: Джордж Тиллман мл. / George Tillman Jr.
В ролях:

Скотт Иствуд (Luke Collins), Бритт Робертсон (Sophia Danko), Алан Алда (Ira Levinson), Джек Хьюстон (Young Ira), Уна Чаплин (Young Ruth), Мелисса Бенойст (Marcia), Лолита Давидович (Kate Collins), Элеа Оберон (Mrs. Pfeffer), Кейт Форбс (Ira's Mother), Тьяго Риани (Luiz), Дэнни Винсон (Larry Till), Хейли Ловитт (Rodeo Girl / Dancer)
Описание: Люк - экс-чемпион по родео, раздумывающий над возвращением в спорт. София - выпускница колледжа, получившая заманчивое предложение о работе в сфере искусства в Нью-Йорке. В то время как молодые люди пытаются сделать нелегкий выбор между чувствами и мечтами, жизнь сталкивает их со стариком Айрой. Воспоминания нового друга о его полувековых отношениях с женой вдохновляют Софию и Люка на главные решения в их жизни. Два поколения, две истории, вечная любовь.

Качество: BDRip-AVC
Формат: MKV
Видео кодек: AVC
Аудио кодек: AC3
Видео: AVC, 948x396 (2.40:1), 1246 kbps, 23,976 fps, 0.138 bit/pixel
Аудио: AC3 / 5.1 / 48 kHz / 384 kbps / 16 bit
Релиз группы:
Автор рипа: potroks

Код:

Общее
Уникальный идентификатор : 191004376463044648895356956077857525113 (0x8FB21AD515C25FCFA5E474C05CB94D79)
Полное имя : Dal'nyaya.Doroga.2015.RUS.BDRip.x264.-HELLYWOOD.mkv
Формат : Matroska
Версия формата : Version 4 / Version 2
Размер файла : 1,46 Гбайт
Продолжительность : 2 ч. 8 м.
Общий поток : 1630 Кбит/сек
Название фильма : The Longest Ride (2015) - HELLYWOOD
Дата кодирования : UTC 2015-08-01 18:16:31
Программа кодирования : mkvmerge v5.9.0 ('On The Loose') built on Dec 15 2012 16:39:58
Библиотека кодирования : libebml v1.3.0 + libmatroska v1.4.0

Видео
Идентификатор : 1
Формат : AVC
Формат/Информация : Advanced Video Codec
Профиль формата : [email protected]
Параметр CABAC формата : Да
Параметр ReFrames формата : 12 кадров
Идентификатор кодека : V_MPEG4/ISO/AVC
Продолжительность : 2 ч. 8 м.
Битрейт : 1246 Кбит/сек
Ширина : 948 пикселей
Высота : 396 пикселей
Соотношение сторон : 2,40:1
Режим частоты кадров : Постоянный
Частота кадров : 23,976 кадра/сек
Цветовое пространство : YUV
Субдискретизация насыщенности : 4:2:0
Битовая глубина : 8 бит
Тип развёртки : Прогрессивная
Бит/(Пиксели*Кадры) : 0.138
Размер потока : 1,09 Гбайт (74%)
Заголовок : potroks
Библиотека кодирования : x264 core 146 r2538 121396c
Настройки программы : cabac=1 / ref=12 / deblock=1:-2:-2 / analyse=0x3:0x113 / me=umh / subme=11 / psy=1 / psy_rd=1.05:0.10 / mixed_ref=1 / me_range=48 / chroma_me=1 / trellis=2 / 8x8dct=1 / cqm=0 / deadzone=21,11 / fast_pskip=0 / chroma_qp_offset=-3 / threads=9 / lookahead_threads=2 / sliced_threads=0 / nr=0 / decimate=0 / interlaced=0 / bluray_compat=0 / constrained_intra=0 / bframes=13 / b_pyramid=2 / b_adapt=2 / b_bias=0 / direct=3 / weightb=1 / open_gop=0 / weightp=2 / keyint=250 / keyint_min=23 / scenecut=40 / intra_refresh=0 / rc_lookahead=60 / rc=2pass / mbtree=0 / bitrate=1246 / ratetol=1.0 / qcomp=0.70 / qpmin=0 / qpmax=69 / qpstep=4 / cplxblur=20.0 / qblur=0.5 / vbv_maxrate=14000 / vbv_bufsize=14000 / nal_hrd=none / filler=0 / ip_ratio=1.35 / pb_ratio=1.25 / aq=1:0.80
Язык : English
Default : Да
Forced : Нет

Аудио
Идентификатор : 2
Формат : AC-3
Формат/Информация : Audio Coding 3
Расширение режима : CM (complete main)
Параметр Endianness формата : Big
Идентификатор кодека : A_AC3
Продолжительность : 2 ч. 8 м.
Вид битрейта : Постоянный
Битрейт : 384 Кбит/сек
Каналы : 6 каналов
Расположение каналов : Front: L C R, Side: L R, LFE
Частота : 48,0 КГц
Метод сжатия : С потерями
Размер потока : 352 Мбайт (24%)
Заголовок : Dub | DD 5.1 @384 kbps - Blu-Ray EUR
Язык : Russian
Default : Да
Forced : Нет

Текст #1
Идентификатор : 3
Формат : UTF-8
Идентификатор кодека : S_TEXT/UTF8
Идентификатор кодека/Информация : UTF-8 Plain Text
Заголовок : Forced
Язык : Russian
Default : Да
Forced : Нет

Текст #2
Идентификатор : 4
Формат : UTF-8
Идентификатор кодека : S_TEXT/UTF8
Идентификатор кодека/Информация : UTF-8 Plain Text
Заголовок : Blu-Ray
Язык : Russian
Default : Нет
Forced : Нет

Меню
00:00:00.000 : en:(01)00:00:00:000
00:02:13.133 : en:(02)00:02:13:133
00:07:16.310 : en:(03)00:07:16:310
00:10:36.302 : en:(04)00:10:36:302
00:12:44.304 : en:(05)00:12:44:304
00:15:41.398 : en:(06)00:15:41:398
00:20:09.540 : en:(07)00:20:09:540
00:23:00.545 : en:(08)00:23:00:545
00:26:04.354 : en:(09)00:26:04:354
00:29:09.998 : en:(10)00:29:09:998
00:33:01.688 : en:(11)00:33:01:688
00:37:16.233 : en:(12)00:37:16:233
00:44:09.103 : en:(13)00:44:09:103
00:48:59.478 : en:(14)00:48:59:478
00:53:24.034 : en:(15)00:53:24:034
00:57:33.115 : en:(16)00:57:33:115
01:01:40.822 : en:(17)01:01:40:822
01:05:01.521 : en:(18)01:05:01:521
01:09:36.505 : en:(19)01:09:36:505
01:11:59.648 : en:(20)01:11:59:648
01:16:15.988 : en:(21)01:16:15:988
01:20:55.015 : en:(22)01:20:55:015
01:25:01.887 : en:(23)01:25:01:887
01:29:15.140 : en:(24)01:29:15:140
01:32:49.396 : en:(25)01:32:49:396
01:37:15.621 : en:(26)01:37:15:621
01:39:56.614 : en:(27)01:39:56:614
01:42:07.912 : en:(28)01:42:07:912
01:45:21.064 : en:(29)01:45:21:064
01:52:07.386 : en:(30)01:52:07:386
01:57:40.845 : en:(31)01:57:40:845
02:02:00.313 : en:(32)02:02:00:313
02:08:17.898 : en:(33)02:08:17:898

freetor.icu



Скачать Дальняя дорога через торрент http://i71.fastpic.ru/big/2015/0801/19/569f00ec5ab9d4d40482a8c074100519.png Скачать, смотреть онлайн Дальняя дорога бесплантно в хорошем качестве Описание: Люк - экс-чемпион по родео, раздумывающий над возвращением в спорт. София - выпускница колледжа, получившая заманчивое ... 9.8 10 12
Торрент: Зарегистрирован [2015-09-18 08:04] · скачан: 183 раз
Статус: √ проверено
Размер: 1.46 GB
Как cкачать? Как скачать Дальняя дорога через торрент | UTorrent

% Раздел Тема Автор DL S | L
Фильмы 2015 [DVDrip, WEB-DLRip, HDrip] [ 2.18 GB ] Дальняя дорога [2015 BDRip-AVC от sokol_ok] DUB sokol_ok Скачать
2 | 0
Фильмы 2015 [DVDrip, WEB-DLRip, HDrip] [ 1.45 GB ] Дальняя дорога [2015 BDRip-AVC от sokol_ok] DUB sokol_ok Скачать
2 | 0
Фильмы 2015 [DVDrip, WEB-DLRip, HDrip] [ 2.18 GB ] Дальняя дорога [2015 BDRip-AVC] DUB potroks Скачать
1 | 0
Фильмы 2015 [DVDrip, WEB-DLRip, HDrip] [ 1.46 GB ] Дальняя дорога [2015 HDRip] DUB Ворон Скачать
2 | 0
Фильмы 2015 [DVDrip, WEB-DLRip, HDrip] [ 1.46 GB ] Дальняя дорога [2015 BDRip] Dub Twi7ter Скачать
1 | 0

28-11-2019 20:33  

Отключить всю рекламу на сайте

    Дорогой пользователь! Огромная просьба, поблагодарите релизера, оцените раздачу и оставьте свои комментарий, если Вы скачали Дальняя дорога через торрент бесплатно!
    Комментировать посты могут только пользователи прошедшие не сложную регистрацию
    Показать сообщения:    

    Дальняя дорога через торрент
    Скачать бесплатно Дальняя дорога
    Дальняя дорога скачать торрент
    Дальняя дорога смотреть онлайн
    Cкачать фильм Дальняя дорога бесплатно
    Дальняя дорога скачать торрент в хорошем качестве
    Дальняя дорога смотреть онлайн бесплатно в хорошем качестве


    Вы не можете начинать темы
    Вы не можете отвечать на сообщения
    Вы не можете редактировать свои сообщения
    Вы не можете удалять свои сообщения
    Вы не можете голосовать в опросах
    Вы не можете прикреплять файлы к сообщениям
    Вы можете скачивать файлы