Присоединяйтесь к нам в Telegram!, здесь всегда актуальный адрес сайта, оперативная поддержка и многое другое!!

>

5.9

iTunes

7.4

iTunes

9.4

1 сезон

1

7.4

2 сезон

7.2

iTunes

7.3

1 сезон

13

6.1

iTunes

8.3

Пиратка

30

ULTIMATE

pack

9.9

Лицензия

ВАЖНО

ИГРА 18+

pack

7.3

RePack

MK11

7.7

RePack

jed

7.8

RePack

fifa19

8.5

RePack

RDR2

RePack

NEED FOR SPEED™ PAYBACK

5 сезон

9 сезон

Бесстыжие 9 сезон

Все сериалы

все сериалы на PB.wtf

RePack

FAR CRY 5

Anonymous, доброй ночи, мы катастрофически не успеваем собрать деньги на оплату серверов, помогите нам пожалуйста 5,10,15р., для нас важна любая помощь . В качестве благодарности мы отключим Вам всю рекламу на сайте (укажите свой ник в строку Ваше имя)!

×
  
Magnet ссылка

Мир Юрского периода (Колин Треворроу) [2015 г., фантастика, приключения, боевик, WEB-DLRip, Дубляж [iTunes]] freetor.icu

Мир Юрского периода через торрент freetor.icu

Размер: 749 MB | Добавлен: 6 лет 2 мес. назад | Торрент скачан:77 раз
Смотреть онлайн Мир Юрского периода | Скачать    Ребята, помогите собрать деньги на оплату серверов!!!

10-09-2015 20:09 Мир Юрского периода Скачать торрент  

Мир Юрского периода / Jurassic World
Год выпуска: 2015
Страна: США, Китай / Universal Pictures, Legendary Pictures, China Film Co., Amblin Entertainment
Жанр: фантастика, приключения, боевик
Продолжительность: 02:04:21
Перевод: Дубляж [iTunes]
Тип релиза: Лицензия
Субтитры: отсутствуют

Режиссер: Колин Треворроу
Продюссер: Патрик Краули, Фрэнк Маршалл, Кристофер Раймо
Сценарий: Рик Джаффа, Аманда Сильвер, Колин Треворроу

Бюджет: $150 000 000
Премьера в мире: 29 мая 2015

Рейтинг PG-13 - Детям до 13 лет просмотр не желателен

IMDB 7.30 (251 193)



В ролях: Крис Пратт, Брайс Даллас Ховард, Ник Дж. Робинсон, Тай Симпкинс, Винсент Д’Онофрио, Ирфан Кхан, Омар Си, Б.Д. Вонг, Джейк Джонсон, Джуди Грир

Описание: Тысячи людей спешат увидеть Мир Юрского периода, но безопасное на первый взгляд развлечение может обернуться угрозой для их жизней...

Доп. информация: Первоначальное название фильма было «Парк Юрского периода 4: Исчезновение». Но в сентябре 2013 года фильм переименовали в «Мир Юрского периода»

Качество: WEB-DLRip
Формат: AVI
Видео кодек: XviD
Аудио кодек: MP3
Видео: 705 Кбит/сек, 608х304, 23,976 кадра/сек
Аудио: 128 Кбит/сек, 2 канала, 48,0 КГц

скриншот   скриншот   скриншот   скриншот  





Формат : AVI
Формат/Информация : Audio Video Interleave
Размер файла : 749 Мбайт
Продолжительность : 2 ч. 4 м.
Общий поток : 843 Кбит/сек
Режиссёр : makarevich
Библиотека кодирования : VirtualDub build 35390/release

Видео
Идентификатор : 0
Формат : MPEG-4 Visual
Профиль формата : Advanced [email protected]
Параметр BVOP формата : 2
Параметр QPel формата : Нет
Параметр GMC формата : Без точки перехода
Параметр матрицы формата : Default (H.263)
Идентификатор кодека : XVID
Идентификатор кодека/Подсказка : XviD
Продолжительность : 2 ч. 4 м.
Битрейт : 705 Кбит/сек
Ширина : 608 пикселей
Высота : 304 пикселя
Соотношение сторон : 2,000
Частота кадров : 23,976 кадра/сек
Цветовое пространство : YUV
Субдискретизация насыщенности : 4:2:0
Битовая глубина : 8 бит
Тип развёртки : Прогрессивная
Метод сжатия : С потерями
Бит/(Пиксели*Кадры) : 0.159
Размер потока : 627 Мбайт (84%)
Библиотека кодирования : XviD 64

Аудио
Идентификатор : 1
Формат : MPEG Audio
Версия формата : Version 1
Профиль формата : Layer 3
Режим : Joint stereo
Идентификатор кодека : 55
Идентификатор кодека/Подсказка : MP3
Продолжительность : 2 ч. 4 м.
Вид битрейта : Постоянный
Битрейт : 128 Кбит/сек
Каналы : 2 канала
Частота : 48,0 КГц
Метод сжатия : С потерями
Размер потока : 114 Мбайт (15%)
Выравнивание : Разделение по промежуткам
Продолжительность промежутка : 42 мс. (1,00 видеокадр)
Время предзагрузки промежутка : 500 мс.


Мир Юрского периода скачать торрент


freetor.icu



Скачать Мир Юрского периода через торрент https://pic1.kartinco.top/images/10/8b2hz.jpg Скачать, смотреть онлайн Мир Юрского периода бесплантно в хорошем качестве Описание: Тысячи людей спешат увидеть Мир Юрского периода, но безопасное на первый взгляд развлечение может обернуться угрозой для их ... 10 10 11
Торрент: Зарегистрирован [2015-09-18 07:52] · скачан: 77 раз
Статус: √ проверено
Размер: 749 MB
Как cкачать? Как скачать Мир Юрского периода через торрент | UTorrent

% Раздел Тема Автор DL S | L
Фильмы (HD 720p, 1080p) (48-60 fps) [ 5.77 GB ] Парк Юрского периода 2: Затерянный мир / The Lost World: Jurassic Park [1997 BDRip 720p / 60 FPS ] от R.G. HD-Films slaventi-69 Скачать
1 | 0
Мультсериалы [ 8.15 GB ] Мир Юрского периода: Лагерь Мелового периода / Jurassic World: Camp Cretaceous/ Сезон: 1 / Серии: 1-8 из 8 [2020 Мультфильм детский WEB-DL 1080p] MVO [Jaskier] bober100 Скачать
1 | 0
Мультсериалы [ 4.99 GB ] Мир Юрского периода: Лагерь Мелового периода / Jurassic World: Camp Cretaceous/ Сезон: 1 / Серии: 1-8 из 8 [2020 Мультфильм детский WEB-DL 720p] MVO [Jaskier] bober100 Скачать
1 | 0
Мультсериалы [ 2.28 GB ] Мир Юрского периода: Лагерь Мелового периода / Jurassic World: Camp Cretaceous/ Сезон: 1 / Серии: 1-8 из 8 [2020 Мультфильм детский WEB-DLRip] MVO [Jaskier] bober100 Скачать
1 | 0
Мультсериалы [ 8.85 GB ] Мир Юрского периода: Лагерь Мелового периода / Jurassic World: Camp Cretaceous / Сезон 1 / Серии 1-8 из 8 [2020 Мультфильм детский WEB-DL 1080p] killermax2013 Скачать
1 | 0
Мультсериалы [ 6.95 GB ] Мир Юрского периода: Лагерь Мелового периода / Jurassic World: Camp Cretaceous / Сезон 1-2 [2020-2021 Мультфильм детский WEB-DLRip] - [Netflix] Twi7ter Скачать
28 | 13
Фильмы (Blu-ray, BD-Remux, HDDVD) [ 28.45 GB ] Мир Юрского периода / Jurassic World [2015 BD Remux ()] Бумер Скачать
1 | 0

28-11-2019 20:33  

Отключить всю рекламу на сайте

14-09-2015 08:57 Мир Юрского периода Скачать торрент  

Фильм на один разfreetor.icu



    Дорогой пользователь! Огромная просьба, поблагодарите релизера, оцените раздачу и оставьте свои комментарий, если Вы скачали Мир Юрского периода через торрент бесплатно!
    Комментировать посты могут только пользователи прошедшие не сложную регистрацию
    Показать сообщения:    

    Мир Юрского периода через торрент
    Скачать бесплатно Мир Юрского периода
    Мир Юрского периода скачать торрент
    Мир Юрского периода смотреть онлайн
    Cкачать фильм Мир Юрского периода бесплатно
    Мир Юрского периода скачать торрент в хорошем качестве
    Мир Юрского периода смотреть онлайн бесплатно в хорошем качестве


    Вы не можете начинать темы
    Вы не можете отвечать на сообщения
    Вы не можете редактировать свои сообщения
    Вы не можете удалять свои сообщения
    Вы не можете голосовать в опросах
    Вы не можете прикреплять файлы к сообщениям
    Вы можете скачивать файлы