Присоединяйтесь к нам в Telegram!, здесь всегда актуальный адрес сайта, оперативная поддержка и многое другое!!

>

5.9

iTunes

7.4

iTunes

9.4

1 сезон

1

7.4

2 сезон

7.2

iTunes

7.3

iTunes

13

6.1

iTunes

8.3

Пиратка

30

ULTIMATE

pack

9.9

Лицензия

ВАЖНО

ИГРА 18+

pack

7.3

RePack

MK11

7.7

RePack

jed

7.8

RePack

fifa19

8.5

RePack

RDR2

RePack

NEED FOR SPEED™ PAYBACK

5 сезон

9 сезон

Бесстыжие 9 сезон

Все сериалы

все сериалы на PB.wtf

RePack

FAR CRY 5

Anonymous, доброе утро, мы катастрофически не успеваем собрать деньги на оплату серверов, помогите нам пожалуйста 5,10,15р., для нас важна любая помощь . В качестве благодарности мы отключим Вам всю рекламу на сайте (укажите свой ник в строку Ваше имя)!

×
  
Magnet ссылка

Золушка (Кеннет Брана) [2015 г., фэнтези, драма, мелодрама, семейный, HDRip, Дубляж, "Лицензия"] freetor.icu

Золушка через торрент freetor.icu

Размер: 2.03 GB | Добавлен: 6 лет 2 мес. назад | Торрент скачан:77 раз
Смотреть онлайн Золушка | Скачать    Ребята, помогите собрать деньги на оплату серверов!!!

14-08-2015 18:16 Золушка Скачать торрент  

Золушка / Cinderella
Год выпуска: 2015
Страна: США, Великобритания / Allison Shearmur Productions, Beagle Pug Films, Genre Films
Жанр: фэнтези, драма, мелодрама, семейный
Продолжительность: 01:45:22
Перевод: Дубляж (Лицензия)

Режиссер: Кеннет Брана

IMDB 7.20 (61 362)


В ролях: Лили Джеймс, Кейт Бланшетт, Ричард Мэдден, Хелена Бонем Картер, Нонсо Анози, Стеллан Скарсгард, Софи МакШера, Холлидей Грейнджер, Дерек Джекоби, Бен Чаплин

Описание: Отец молодой девушки по имени Элла, овдовев, женится во второй раз, и вскоре Элла оказывается один на один с жадными и завистливыми новыми родственницами — мачехой Леди Тремэйн и ее дочерьми — Анастасией и Дризеллой. Из хозяйки дома она превращается в служанку, вечно испачканную золой, за что и получает от своих сварливых сводных сестриц прозвище — Золушка. Несмотря на злоключения, выпавшие на ее долю, Золушка не отчаивается, ведь даже в самые тяжелые моменты находится что-то, что помогает ей думать о хорошем: например, случайная встреча на лесной тропинке с прекрасным юношей. Элла даже не предполагает, что встретилась с самим принцем, и что вскоре Фея-крестная навсегда поменяет её жизнь к лучшему.

Качество: HDRip
Формат: AVI
Видео кодек: DivX
Аудио кодек: AC3
Видео: 720x304 (2.37:1), 23.976 fps, DivX Codec 4.x ~2297 kbps avg, 0.44 bit/pixel
Аудио: 48 kHz, AC3 Dolby Digital, 3/2 (L,C,R,l,r) + LFE ch, ~448 kbps

Общее
Полное имя : F:\кино\Золушка.2015.HDRip.avi
Формат : AVI
Формат/Информация : Audio Video Interleave
Профиль формата : OpenDML
Размер файла : 2,03 Гбайт
Продолжительность : 1 ч. 45 м.
Общий поток : 2753 Кбит/сек
Программа кодирования : VirtualDubMod 1.5.10.3 | www.virtualdub-fr.org || (build 2550/release)
Библиотека кодирования : VirtualDubMod build 2550/release

Видео
Идентификатор : 0
Формат : MPEG-4 Visual
Профиль формата : Advanced [email protected]
Параметр BVOP формата : 2
Параметр QPel формата : Нет
Параметр GMC формата : Без точки перехода
Параметр матрицы формата : Default (H.263)
Идентификатор кодека : DIVX
Идентификатор кодека/Информация : Project Mayo
Идентификатор кодека/Подсказка : DivX 4
Продолжительность : 1 ч. 45 м.
Битрейт : 2292 Кбит/сек
Ширина : 720 пикселей
Высота : 304 пикселя
Соотношение сторон : 2,35:1
Частота кадров : 23,976 кадра/сек
Цветовое пространство : YUV
Субдискретизация насыщенности : 4:2:0
Битовая глубина : 8 бит
Тип развёртки : Прогрессивная
Метод сжатия : С потерями
Бит/(Пиксели*Кадры) : 0.437
Размер потока : 1,69 Гбайт (83%)
Библиотека кодирования : XviD 1.2.1 (UTC 2008-12-04)

Аудио
Идентификатор : 1
Формат : AC-3
Формат/Информация : Audio Coding 3
Расширение режима : CM (complete main)
Параметр Endianness формата : Big
Идентификатор кодека : 2000
Продолжительность : 1 ч. 45 м.
Вид битрейта : Постоянный
Битрейт : 448 Кбит/сек
Каналы : 6 каналов
Расположение каналов : Front: L C R, Side: L R, LFE
Частота : 48,0 КГц
Метод сжатия : С потерями
Размер потока : 338 Мбайт (16%)
Выравнивание : Разделение по промежуткам
Продолжительность промежутка : 42 мс. (1,00 видеокадр)
Время предзагрузки промежутка : 500 мс.

freetor.icu



Скачать Золушка через торрент https://pic1.kartinco.top/images/10/dzjqs.jpg Скачать, смотреть онлайн Золушка бесплантно в хорошем качестве Описание: Отец молодой девушки по имени Элла, овдовев, женится во второй раз, и вскоре Элла оказывается один на один с жадными и ... 10 10 19
Торрент: Зарегистрирован [2015-09-18 07:42] · скачан: 77 раз
Статус: √ проверено
Размер: 2.03 GB
Как cкачать? Как скачать Золушка через торрент | UTorrent

% Раздел Тема Автор DL S | L
Фильмы 2021 [DVDrip, WEB-DLRip, HDrip] (DUB, MVO) [ 1.46 GB ] Золушка / Cinderella [2021 Мюзикл WEB-DLRip] MVO [HDRezka Studio] bober100 Скачать
1 | 0
Фильмы (WEB-DL 720p, 1080p) [ 7.67 GB ] Золушка / Cinderella [2021 Мюзикл WEB-DL 1080p] MVO [HDRezka Studio] bober100 Скачать
1 | 0
3D Мультфильмы [ 13.95 GB ] Золушка: Полный вперед! в 3Д / Cendrillon au Far West 3D [2012 мультфильм BDRip 1080p] OverUnder / Вертикальная стереопара serega768 Скачать
1 | 0
Аудиоспектакли и литературные чтения [ 169 MB ] Леонид Филатов - Золушка до и после [Александр Леньков и другие 2005 256 kbps MP3] urapavel Скачать
1 | 0
Фильмы с авторской озвучкой [ 4.04 GB ] Золушка 2000 / Cinderella 2000 [1977 эротика BDRip 720p Авторский ] от ExKinoRay dumbia Скачать
1 | 0
T Фильмы 2018 [DVDrip, WEB-DLRip, HDrip] (DUB, MVO) [ 1.91 GB ] Совсем не Золушка / Not Cinderella's Type [2018 Мело WEB-DLRip-AVC] [MVO] от MediaBit Lithuania Скачать
2 | 0
Фильмы 2019-2020 [DVDrip, WEB-DLRip, HDrip] (DUB, MVO) [ 1.89 GB ] Диджей Золушка / Cinderela Pop [2019 Мело WEB-DLRip-AVC] [ ] от MediaBit Lithuania Скачать
1 | 0

28-11-2019 20:33  

Отключить всю рекламу на сайте

    Дорогой пользователь! Огромная просьба, поблагодарите релизера, оцените раздачу и оставьте свои комментарий, если Вы скачали Золушка через торрент бесплатно!
    Комментировать посты могут только пользователи прошедшие не сложную регистрацию
    Показать сообщения:    

    Золушка через торрент
    Скачать бесплатно Золушка
    Золушка скачать торрент
    Золушка смотреть онлайн
    Cкачать фильм Золушка бесплатно
    Золушка скачать торрент в хорошем качестве
    Золушка смотреть онлайн бесплатно в хорошем качестве


    Вы не можете начинать темы
    Вы не можете отвечать на сообщения
    Вы не можете редактировать свои сообщения
    Вы не можете удалять свои сообщения
    Вы не можете голосовать в опросах
    Вы не можете прикреплять файлы к сообщениям
    Вы можете скачивать файлы