Присоединяйтесь к нам в Telegram!, здесь всегда актуальный адрес сайта, оперативная поддержка и многое другое!!

>

5.9

iTunes

7.4

iTunes

9.4

1 сезон

1

7.4

2 сезон

7.2

iTunes

7.3

1 сезон

13

6.1

iTunes

8.3

GOG

30

ULTIMATE

pack

9.9

Лицензия

ВАЖНО

ИГРА 18+

pack

7.3

RePack

MK11

7.7

RePack

jed

7.8

RePack

fifa19

8.5

RePack

RDR2

RePack

NEED FOR SPEED™ PAYBACK

5 сезон

9 сезон

Бесстыжие 9 сезон

Все сериалы

все сериалы на PB.wtf

RePack

FAR CRY 5

Anonymous, доброй ночи, мы катастрофически не успеваем собрать деньги на оплату серверов, помогите нам пожалуйста 5,10,15р., для нас важна любая помощь . В качестве благодарности мы отключим Вам всю рекламу на сайте (укажите свой ник в строку Ваше имя)!

×
  
Magnet ссылка

Полтергейст / Poltergeist (Гил Кинан / Gil Kenan) [2015, ужасы, триллер, BDRip-AVC от potroks] DUB Лицензия freetor.icu

Полтергейст через торрент freetor.icu

Размер: 1.37 GB | Добавлен: 6 лет 2 мес. назад | Торрент скачан:44 раза
Смотреть онлайн Полтергейст | Скачать    Ребята, помогите собрать деньги на оплату серверов!!!

14-09-2015 08:41 Полтергейст Скачать торрент  

Полтергейст / Poltergeist
«They know what scares you»
Год выпуска: 2015
Страна: США, Канада / Fox 2000 Pictures, Metro-Goldwyn-Mayer (MGM)...
Жанр: ужасы, триллер
Продолжительность: 01:40:49
Перевод: Дубляж [BD CEE]
Субтитры: русские
Навигация по главам: есть
Режиссер: Гил Кинан / Gil Kenan
В ролях:

Сэм Рокуэлл (Eric Bowen), Розмари ДеУитт (Amy Bowen), Саксон Шарбино (Kendra Bowen), Кайл Кэтлетт (Griffin Bowen), Кеннеди Клементс (Madison Bowen), Джаред Харрис (Carrigan Burke), Джейн Адамс (Dr. Brooke Powell), Сьюзэн Хэйард (Sophie), Николас Браун (Boyd), Карен Ивани (Mrs. Stoller), Патрик Гэрроу (Mr. Stoller), Дуглас Маклеод (Older Gentleman)




Описание: Когда страшные призраки забирают младшую дочь, семье приходится объединиться, чтобы спасти ее...





Качество: BDRip-AVC
Формат: MKV
Видео кодек: AVC
Аудио кодек: AC3
Видео: AVC, 1008x420 (2.40:1), 1620 kbps, 23,976 fps, 0,160 bit/pixel
Аудио: AC3 / 5.1 / 48 kHz / 448 kbps / 16 bit

Релиз группы:
Автор рипа: potroks

Код:

Общее
Уникальный идентификатор : 202646463633700747395492762748333189919 (0x98744A0BDEE56E3FB7259593651DEB1F)
Полное имя : Poltergeyst.2015.Extended.RUS.BDRip.x264.-HELLYWOOD.mkv
Формат : Matroska
Версия формата : Version 4 / Version 2
Размер файла : 1,37 Гбайт
Продолжительность : 1 ч. 40 м.
Общий поток : 1953 Кбит/сек
Название фильма : Poltergeist (2015) [EXTENDED] - HELLYWOOD
Дата кодирования : UTC 2015-09-18 22:07:39
Программа кодирования : mkvmerge v5.9.0 ('On The Loose') built on Dec 15 2012 16:39:58
Библиотека кодирования : libebml v1.3.0 + libmatroska v1.4.0

Видео
Идентификатор : 1
Формат : AVC
Формат/Информация : Advanced Video Codec
Профиль формата : [email protected]
Параметр CABAC формата : Да
Параметр ReFrames формата : 12 кадров
Идентификатор кодека : V_MPEG4/ISO/AVC
Продолжительность : 1 ч. 40 м.
Битрейт : 1466 Кбит/сек
Номинальный битрейт : 1620 Кбит/сек
Ширина : 1008 пикселей
Высота : 420 пикселей
Соотношение сторон : 2,40:1
Режим частоты кадров : Постоянный
Частота кадров : 23,976 кадра/сек
Цветовое пространство : YUV
Субдискретизация насыщенности : 4:2:0
Битовая глубина : 8 бит
Тип развёртки : Прогрессивная
Бит/(Пиксели*Кадры) : 0.144
Размер потока : 1,03 Гбайт (75%)
Заголовок : potroks
Библиотека кодирования : x264 core 148 r2597M e86f3a1
Настройки программы : cabac=1 / ref=12 / deblock=1:-2:-2 / analyse=0x3:0x133 / me=umh / subme=11 / psy=1 / psy_rd=1.00:0.10 / mixed_ref=1 / me_range=48 / chroma_me=1 / trellis=2 / 8x8dct=1 / cqm=0 / deadzone=21,11 / fast_pskip=0 / chroma_qp_offset=-3 / threads=10 / lookahead_threads=2 / sliced_threads=0 / nr=0 / decimate=1 / interlaced=0 / bluray_compat=0 / constrained_intra=0 / bframes=13 / b_pyramid=2 / b_adapt=2 / b_bias=0 / direct=3 / weightb=1 / open_gop=0 / weightp=2 / keyint=250 / keyint_min=23 / scenecut=40 / intra_refresh=0 / rc=2pass / mbtree=0 / bitrate=1620 / ratetol=1.0 / qcomp=0.70 / qpmin=0 / qpmax=69 / qpstep=4 / cplxblur=20.0 / qblur=0.5 / ip_ratio=1.40 / pb_ratio=1.30 / aq=1:0.80
Язык : English
Default : Да
Forced : Нет

Аудио
Идентификатор : 2
Формат : AC-3
Формат/Информация : Audio Coding 3
Расширение режима : CM (complete main)
Параметр Endianness формата : Big
Идентификатор кодека : A_AC3
Продолжительность : 1 ч. 40 м.
Вид битрейта : Постоянный
Битрейт : 448 Кбит/сек
Каналы : 6 каналов
Расположение каналов : Front: L C R, Side: L R, LFE
Частота : 48,0 КГц
Метод сжатия : С потерями
Размер потока : 323 Мбайт (23%)
Заголовок : Dub | DD 5.1 @ 448 kbps - Blu-Ray CEE
Язык : Russian
Default : Да
Forced : Нет

Текст
Идентификатор : 3
Формат : UTF-8
Идентификатор кодека : S_TEXT/UTF8
Идентификатор кодека/Информация : UTF-8 Plain Text
Язык : Russian
Default : Нет
Forced : Нет

Меню
00:00:00.000 : :(01)00:00:00:000
00:04:57.338 : :(02)00:04:57:338
00:09:55.927 : :(03)00:09:55:927
00:16:26.442 : :(04)00:16:26:442
00:20:31.730 : :(05)00:20:31:730
00:22:34.227 : :(06)00:22:34:227
00:26:31.006 : :(07)00:26:31:006
00:30:01.883 : :(08)00:30:01:883
00:35:06.353 : :(09)00:35:06:353
00:37:27.661 : :(10)00:37:27:661
00:41:41.623 : :(11)00:41:41:623
00:46:55.103 : :(12)00:46:55:103
00:49:56.617 : :(13)00:49:56:617
00:53:41.134 : :(14)00:53:41:134
01:00:08.478 : :(15)01:00:08:478
01:04:28.322 : :(16)01:04:28:322
01:06:42.498 : :(17)01:06:42:498
01:09:39.591 : :(18)01:09:39:591
01:12:37.350 : :(19)01:12:37:350
01:16:06.185 : :(20)01:16:06:185
01:19:36.563 : :(21)01:19:36:563
01:25:23.076 : :(22)01:25:23:076
01:29:56.555 : :(23)01:29:56:555
01:35:01.779 : :(24)01:35:01:779

freetor.icu



Скачать Полтергейст через торрент http://i71.fastpic.ru/big/2015/0914/66/4ee0fde2b34bb6f7aaf0d14d62560c66.png Скачать, смотреть онлайн Полтергейст бесплантно в хорошем качестве Описание: Когда страшные призраки забирают младшую дочь, семье приходится объединиться, чтобы спасти ... 8.5 10 6
Info! Серебряная раздача, засчитывается только 50% скачанного.
Торрент: Зарегистрирован [2015-09-18 22:18] · скачан: 44 раз
Статус: √ проверено
Размер: 1.37 GB
Как cкачать? Как скачать Полтергейст через торрент | UTorrent

% Раздел Тема Автор DL S | L
Фильмы 2015 [DVDrip, WEB-DLRip, HDrip] [ 2.18 GB ] Полтергейст / Poltergeist [2015 BDRip-AVC] DUB potroks Скачать
1 | 0
Фильмы 2015 [DVDrip, WEB-DLRip, HDrip] [ 1.46 GB ] Полтергейст / Poltergeist [2015 BDRip-AVC] DUB potroks Скачать
1 | 0
Фильмы 2015 [DVDrip, WEB-DLRip, HDrip] [ 1.45 GB ] Полтергейст / Poltergeist [2015 BDRip] DUB Twi7ter Скачать
1 | 0
Фильмы (WEB-DL 720p, 1080p) [ 3.09 GB ] Полтергейст / Poltergeist [2015 WEB-DL 720p / Extended cut] DUB - / Newton5 Скачать
1 | 0


Последний раз редактировалось: potroks (2015-09-18 22:18), всего редактировалось 2 раз(а)

28-11-2019 20:33  

Отключить всю рекламу на сайте

17-09-2015 14:30 Полтергейст Скачать торрент  

Как фильм?))freetor.icu



    Дорогой пользователь! Огромная просьба, поблагодарите релизера, оцените раздачу и оставьте свои комментарий, если Вы скачали Полтергейст через торрент бесплатно!
    Комментировать посты могут только пользователи прошедшие не сложную регистрацию
    Показать сообщения:    

    Полтергейст через торрент
    Скачать бесплатно Полтергейст
    Полтергейст скачать торрент
    Полтергейст смотреть онлайн
    Cкачать фильм Полтергейст бесплатно
    Полтергейст скачать торрент в хорошем качестве
    Полтергейст смотреть онлайн бесплатно в хорошем качестве


    Вы не можете начинать темы
    Вы не можете отвечать на сообщения
    Вы не можете редактировать свои сообщения
    Вы не можете удалять свои сообщения
    Вы не можете голосовать в опросах
    Вы не можете прикреплять файлы к сообщениям
    Вы можете скачивать файлы