Присоединяйтесь к нам в Telegram!, здесь всегда актуальный адрес сайта, оперативная поддержка и многое другое!!

>

5.9

iTunes

7.4

iTunes

9.4

1 сезон

1

7.4

2 сезон

7.2

iTunes

7.3

1 сезон

13

6.1

iTunes

8.3

Пиратка

30

ULTIMATE

pack

9.9

Лицензия

ВАЖНО

ИГРА 18+

pack

7.3

RePack

MK11

7.7

RePack

jed

7.8

RePack

fifa19

8.5

RePack

RDR2

RePack

NEED FOR SPEED™ PAYBACK

5 сезон

9 сезон

Бесстыжие 9 сезон

Все сериалы

все сериалы на PB.wtf

RePack

FAR CRY 5

Anonymous, доброй ночи, мы катастрофически не успеваем собрать деньги на оплату серверов, помогите нам пожалуйста 5,10,15р., для нас важна любая помощь . В качестве благодарности мы отключим Вам всю рекламу на сайте (укажите свой ник в строку Ваше имя)!

×
  
Magnet ссылка

Полтергейст / Poltergeist (Гил Кинан) [2015 г., ужасы, триллер, HDRip, Дубляж [iTunes]] freetor.icu

Полтергейст через торрент freetor.icu

Размер: 1.37 GB | Добавлен: 6 лет 2 мес. назад | Торрент скачан:201 раз
Смотреть онлайн Полтергейст | Скачать    Ребята, помогите собрать деньги на оплату серверов!!!

11-09-2015 11:03 Полтергейст Скачать торрент  

Полтергейст / Poltergeist
Год выпуска: 2015
Страна: США, Канада / Metro-Goldwyn-Mayer (MGM), Ghost House Pictures
Жанр: ужасы, триллер
Продолжительность: 01:41:17
Перевод: Дубляж [iTunes]

Режиссер: Гил Кинан
Продюссер: Натан Каан, Рой Ли, Сэм Рэйми
Сценарий: Стивен Спилберг, Дэвид Линдси-Эбейр, Майкл Грэйс

Бюджет: $35 000 000
Премьера в мире: 18 мая 2015

IMDB 5.00 (22 629)

В ролях: Сэм Рокуэлл, Розмари ДеУитт, Саксон Шарбино, Кайл Кэтлетт, Кеннеди Клементс, Джаред Харрис, Джейн Адамс, Сьюзэн Хэйард, Николас Браун, Карен Ивани, Артем Бордовский, Светлана Кузнецова, Ирина Обрезкова, Станислав Концевич, Виктория Слуцкая

Описание: Когда страшные призраки забирают младшую дочь, семье приходится объединиться, чтобы спасти ее...

Качество: HDRip
Формат: AVI
Видео кодек: XviD
Аудио кодек: AC3
Видео: XviD, 720x304 (2.35:1), 1545 kbps, 23,976 fps, 0,295 bpp
Аудио: AC3 / 5.1 / 48 kHz / 384 kbps / 16 bit

Код:

General
Complete name                            : E:\films\Poltergeist.2015.EXTENDED.D.HDRip.1400MB.avi
Format                                   : AVI
Format/Info                              : Audio Video Interleave
File size                                : 1.37 GiB
Duration                                 : 1h 40mn
Overall bit rate                         : 1 939 Kbps
Writing application                      : VirtualDubMod 1.5.10.2 (build 2540/release)
Writing library                          : VirtualDubMod build 2540/release

Video
ID                                       : 0
Format                                   : MPEG-4 Visual
Format profile                           : Advanced [email protected]
Format settings, BVOP                    : 2
Format settings, QPel                    : No
Format settings, GMC                     : No warppoints
Format settings, Matrix                  : Default (MPEG)
Codec ID                                 : XVID
Codec ID/Hint                            : XviD
Duration                                 : 1h 40mn
Bit rate                                 : 1 546 Kbps
Width                                    : 720 pixels
Height                                   : 304 pixels
Display aspect ratio                     : 2.35:1
Frame rate                               : 23.976 fps
Color space                              : YUV
Chroma subsampling                       : 4:2:0
Bit depth                                : 8 bits
Scan type                                : Progressive
Compression mode                         : Lossy
Bits/(Pixel*Frame)                       : 0.295
Stream size                              : 1.09 GiB (80%)
Writing library                          : XviD 1.2.1 (UTC 2008-12-04)

Audio
ID                                       : 1
Format                                   : AC-3
Format/Info                              : Audio Coding 3
Mode extension                           : CM (complete main)
Codec ID                                 : 2000
Duration                                 : 1h 40mn
Bit rate mode                            : Constant
Bit rate                                 : 384 Kbps
Channel(s)                               : 6 channels
Channel positions                        : Front: L C R, Side: L R, LFE
Sampling rate                            : 48.0 KHz
Bit depth                                : 16 bits
Compression mode                         : Lossy
Stream size                              : 277 MiB (20%)
Alignment                                : Split accross interleaves
Interleave, duration                     : 42 ms (1.00 video frame)
Interleave, preload duration             : 500 ms

freetor.icu



Скачать Полтергейст через торрент http://i72.fastpic.ru/big/2015/0622/e0/554f7154a91c85e9302d8669089404e0.jpg Скачать, смотреть онлайн Полтергейст бесплантно в хорошем качестве Описание: Когда страшные призраки забирают младшую дочь, семье приходится объединиться, чтобы спасти ... 9.4 10 9
Торрент: Зарегистрирован [2015-09-11 11:03] · скачан: 201 раз
Статус: √ проверено
Размер: 1.37 GB
Как cкачать? Как скачать Полтергейст через торрент | UTorrent

% Раздел Тема Автор DL S | L
Фильмы [HD 720p, 1080p] (Хороший звук DUB, MVO) [ 5.76 GB ] Полтергейст / Poltergeist [1982 BDRip 720p] 3xMVO AVO Леонид Ильич Скачать
1 | 0
Зарубежные сериалы [ 53.3 GB ] Полтергейст - Наследие / Буйство духов / Poltergeist - The Legacy / Сезон: 1-4 из 4 / Серии: 1-88 из 88 [1996 - 1999 DVDRip] MVO Serejechka Скачать
1 | 0
Фильмы (Blu-ray, BD-Remux, HDDVD) [ 34.24 GB ] Полтергейст / Poltergeist [2015 Blu-Ray / Театральная и расширенная версии / ] Ворон Скачать
1 | 0
Фильмы (BDRip, HDrip-AVC) (48-60 fps) [ 3.8 GB ] Полтергейст / Poltergeist [2015 BDRip-AVC / 60fps Dub ] от R.G. HD-Films Ressident Скачать
1 | 0
Фильмы 2015 [DVDrip, WEB-DLRip, HDrip] [ 2.18 GB ] Полтергейст / Poltergeist [2015 BDRip-AVC] DUB potroks Скачать
1 | 0
Фильмы 2015 [DVDrip, WEB-DLRip, HDrip] [ 1.46 GB ] Полтергейст / Poltergeist [2015 BDRip-AVC] DUB potroks Скачать
1 | 0
3D Фильмы [ 11.8 GB ] Полтергейст / Poltergeist [2015 BDrip 1080p]Full OverUnder / Вертикальная стереопара serega768 Скачать
1 | 0

28-11-2019 20:33  

Отключить всю рекламу на сайте

11-09-2015 12:27 Полтергейст Скачать торрент  

Ну да. А когда нестрашные призраки забрали старшую, все наконец-то вздохнули спокойно. Бред.freetor.icu



11-09-2015 14:41 Полтергейст Скачать торрент  

Shum4Xer писал(а):

Ну да. А когда нестрашные призраки забрали старшую, все наконец-то вздохнули спокойно. Бред.

Ну это, как обычно, бравые американские парни и семьи всех и вся побеждают, а да и почему то всё всегда у них происходит ночью ! ! ! Все бабайки днём отсыпаются ! ! ! )))freetor.icu



    Дорогой пользователь! Огромная просьба, поблагодарите релизера, оцените раздачу и оставьте свои комментарий, если Вы скачали Полтергейст через торрент бесплатно!
    Комментировать посты могут только пользователи прошедшие не сложную регистрацию
    Показать сообщения:    

    Полтергейст через торрент
    Скачать бесплатно Полтергейст
    Полтергейст скачать торрент
    Полтергейст смотреть онлайн
    Cкачать фильм Полтергейст бесплатно
    Полтергейст скачать торрент в хорошем качестве
    Полтергейст смотреть онлайн бесплатно в хорошем качестве


    Вы не можете начинать темы
    Вы не можете отвечать на сообщения
    Вы не можете редактировать свои сообщения
    Вы не можете удалять свои сообщения
    Вы не можете голосовать в опросах
    Вы не можете прикреплять файлы к сообщениям
    Вы можете скачивать файлы