Присоединяйтесь к нам в Telegram!, здесь всегда актуальный адрес сайта, оперативная поддержка и многое другое!!

>

5.9

iTunes

7.4

iTunes

9.4

1 сезон

1

7.4

2 сезон

7.2

iTunes

7.3

1 сезон

13

6.1

iTunes

8.3

GOG

30

ULTIMATE

pack

9.9

Лицензия

ВАЖНО

ИГРА 18+

pack

7.3

RePack

MK11

7.7

RePack

jed

7.8

RePack

fifa19

8.5

RePack

RDR2

RePack

NEED FOR SPEED™ PAYBACK

5 сезон

9 сезон

Бесстыжие 9 сезон

Все сериалы

все сериалы на PB.wtf

RePack

FAR CRY 5

Anonymous, доброй ночи, мы катастрофически не успеваем собрать деньги на оплату серверов, помогите нам пожалуйста 5,10,15р., для нас важна любая помощь . В качестве благодарности мы отключим Вам всю рекламу на сайте (укажите свой ник в строку Ваше имя)!

×
  
Magnet ссылка

Полтергейст / Poltergeist (Гил Кинан) [2015, ужасы, триллер, WEB-DLRip, Дубляж] iTunes(Extended cut) freetor.icu

Полтергейст через торрент freetor.icu

Размер: 1.46 GB | Добавлен: 6 лет 3 мес. назад | Торрент скачан:1069 раз
Смотреть онлайн Полтергейст | Скачать    Ребята, помогите собрать деньги на оплату серверов!!!

03-09-2015 19:38 Полтергейст Скачать торрент  


Полтергейст / Poltergeist
««They know what scares you»»

ИНФОРМАЦИЯ:
Год выпуска:2015
Страна: США, Канада
Жанр: ужасы, триллер
Продолжительность: 01:41:17
Перевод: Дубляж - [Лицензия / iTunes]
Режиссер: Гил Кинан

В Ролях:


Сэм Рокуэлл (Eric Bowen), Розмари ДеУитт (Amy Bowen), Саксон Шарбино (Kendra Bowen), Кайл Кэтлетт (Griffin Bowen), Кеннеди Клементс (Madison Bowen), Джаред Харрис (Carrigan Burke), Джейн Адамс (Dr. Brooke Powell), Сьюзэн Хэйард (Sophie), Николас Браун (Boyd), Карен Ивани (Mrs. Stoller), Патрик Гэрроу (Mr. Stoller), Дуглас Маклеод (Older Gentleman)

Описание:
Когда страшные призраки забирают младшую дочь, семье приходится объединиться, чтобы спасти ее...

  • Мировая премьера:18 мая 2015

    ТЕХ.ДАННЫЕ:
    Качество: WEB-DLRip
    Формат: AVI
    Видео кодек: XviD
    Аудио кодек: AC3
    Видео: XviD, 720x304 (2.35:1),1670 kbps, 23,976 fps, 0,302 bpp
    Аудио: AC3 / 5.1 / 48 kHz / 384 kbps / 16 bit


    General
    Complete name : D:\Торенты\P0lt3rgeist.UNRATED.2015.D.WEBDLRip.1.46GB.avi
    Format : AVI
    Format/Info : Audio Video Interleave
    File size : 1.46 GiB
    Duration : 1h 41mn
    Overall bit rate : 2 062 Kbps
    Writing application : VirtualDubMod 1.5.10.3 | www.virtualdub-fr.org || (build 2550/release)
    Writing library : VirtualDubMod build 2550/release

    Video
    ID : 0
    Format : MPEG-4 Visual
    Format profile : Advanced [email protected]
    Format settings, BVOP : 2
    Format settings, QPel : No
    Format settings, GMC : No warppoints
    Format settings, Matrix : Default (MPEG)
    Codec ID : XVID
    Codec ID/Hint : XviD
    Duration : 1h 41mn
    Bit rate : 1670 Kbps
    Width : 720 pixels
    Height : 304 pixels
    Display aspect ratio : 2.35:1
    Frame rate : 23.976 fps
    Color space : YUV
    Chroma subsampling : 4:2:0
    Bit depth : 8 bits
    Scan type : Progressive
    Compression mode : Lossy
    Bits/(Pixel*Frame) : 0.302
    Stream size : 1.12 GiB (77%)
    Writing library : XviD 1.2.1 (UTC 2008-12-04)

    Audio
    ID : 1
    Format : AC-3
    Format/Info : Audio Coding 3
    Mode extension : CM (complete main)
    Codec ID : 2000
    Duration : 1h 40mn
    Bit rate mode : Constant
    Bit rate : 384 Kbps
    Channel(s) : 6 channels
    Channel positions : Front: L C R, Side: L R, LFE
    Sampling rate : 48.0 KHz
    Bit depth : 16 bits
    Compression mode : Lossy
    Stream size : 277 MiB (19%)
    Alignment : Split accross interleaves
    Скриншоты:


    © Оформление by Ворон
    freetor.icu



  • Скачать Полтергейст через торрент https://pic1.kartinco.top/images/61/ordi9.jpg Скачать, смотреть онлайн Полтергейст бесплантно в хорошем качестве Описание: Когда страшные призраки забирают младшую дочь, семье приходится объединиться, чтобы спасти ее... Мировая премьера:18 мая 2015 ... 9.3 10 36
    Info! Золотая раздача, скачанное не засчитывается.
    Торрент: Зарегистрирован [2015-09-03 19:38] · скачан: 1 069 раз
    Статус: √ проверено
    Размер: 1.46 GB
    Как cкачать? Как скачать Полтергейст через торрент | UTorrent

    % Раздел Тема Автор DL S | L
    Фильмы [HD 720p, 1080p] (Хороший звук DUB, MVO) [ 5.76 GB ] Полтергейст / Poltergeist [1982 BDRip 720p] 3xMVO AVO Леонид Ильич Скачать
    1 | 0
    Зарубежные сериалы [ 53.3 GB ] Полтергейст - Наследие / Буйство духов / Poltergeist - The Legacy / Сезон: 1-4 из 4 / Серии: 1-88 из 88 [1996 - 1999 DVDRip] MVO Serejechka Скачать
    1 | 0
    Фильмы (Blu-ray, BD-Remux, HDDVD) [ 34.24 GB ] Полтергейст / Poltergeist [2015 Blu-Ray / Театральная и расширенная версии / ] Ворон Скачать
    1 | 0
    Фильмы (BDRip, HDrip-AVC) (48-60 fps) [ 3.8 GB ] Полтергейст / Poltergeist [2015 BDRip-AVC / 60fps Dub ] от R.G. HD-Films Ressident Скачать
    1 | 0
    Фильмы 2015 [DVDrip, WEB-DLRip, HDrip] [ 2.18 GB ] Полтергейст / Poltergeist [2015 BDRip-AVC] DUB potroks Скачать
    1 | 0
    Фильмы 2015 [DVDrip, WEB-DLRip, HDrip] [ 1.46 GB ] Полтергейст / Poltergeist [2015 BDRip-AVC] DUB potroks Скачать
    1 | 0
    3D Фильмы [ 11.8 GB ] Полтергейст / Poltergeist [2015 BDrip 1080p]Full OverUnder / Вертикальная стереопара serega768 Скачать
    1 | 0

    28-11-2019 20:33  

    Отключить всю рекламу на сайте

    04-09-2015 11:44 Полтергейст Скачать торрент  

    На кинопоиске отзывы про фильм отстойные! Что правда всё так плохо ?)freetor.icu



    04-09-2015 13:11 Полтергейст Скачать торрент  

    Ну и хрень )))freetor.icu



    04-09-2015 14:24 Полтергейст Скачать торрент  

    zubik1488 писал(а):

    На кинопоиске отзывы про фильм отстойные! Что правда всё так плохо ?)

    Весьма плохо...freetor.icu



    04-09-2015 15:30 Полтергейст Скачать торрент  

    норм фильм, можно посмотретьfreetor.icu



    05-09-2015 04:56 Полтергейст Скачать торрент  

    Норм фильм, школьникам лишь бы обосрать...freetor.icu



    05-09-2015 06:22 Полтергейст Скачать торрент  

    одну из серий Гриффинов экранизировали... но у гриффинов то смешнее былоfreetor.icu



    07-09-2015 05:53 Полтергейст Скачать торрент  

    слабовато, и сюжет и игра актеров.

    Но больше всего напрягло - семья, в которой оба родителя безработных, денег на карточках тоже нет - живут в долг/кредит - покупают дом... когда он разрушается, едут в чужом автомобиле в другой город и там опять хотят купить дом... зачем сценаристы придумали что они безработные и денег у них нет, без этого можно было обойтись как-то.freetor.icu



    07-09-2015 22:42 Полтергейст Скачать торрент  

    real DEMON писал(а):

    Норм фильм, школьникам лишь бы обосрать...

    фильм,уровня школьников ))))freetor.icu



      Дорогой пользователь! Огромная просьба, поблагодарите релизера, оцените раздачу и оставьте свои комментарий, если Вы скачали Полтергейст через торрент бесплатно!
      Комментировать посты могут только пользователи прошедшие не сложную регистрацию
      Показать сообщения:    

      Полтергейст через торрент
      Скачать бесплатно Полтергейст
      Полтергейст скачать торрент
      Полтергейст смотреть онлайн
      Cкачать фильм Полтергейст бесплатно
      Полтергейст скачать торрент в хорошем качестве
      Полтергейст смотреть онлайн бесплатно в хорошем качестве


      Вы не можете начинать темы
      Вы не можете отвечать на сообщения
      Вы не можете редактировать свои сообщения
      Вы не можете удалять свои сообщения
      Вы не можете голосовать в опросах
      Вы не можете прикреплять файлы к сообщениям
      Вы можете скачивать файлы