Присоединяйтесь к нам в Telegram!, здесь всегда актуальный адрес сайта, оперативная поддержка и многое другое!!

>

5.9

iTunes

7.4

iTunes

9.4

1 сезон

1

7.4

2 сезон

7.2

iTunes

7.3

1 сезон

13

6.1

iTunes

8.3

GOG

30

ULTIMATE

pack

9.9

Лицензия

ВАЖНО

ИГРА 18+

pack

7.3

RePack

MK11

7.7

RePack

jed

7.8

RePack

fifa19

8.5

RePack

RDR2

RePack

NEED FOR SPEED™ PAYBACK

5 сезон

9 сезон

Бесстыжие 9 сезон

Все сериалы

все сериалы на PB.wtf

RePack

FAR CRY 5

Anonymous, доброй ночи, мы катастрофически не успеваем собрать деньги на оплату серверов, помогите нам пожалуйста 5,10,15р., для нас важна любая помощь . В качестве благодарности мы отключим Вам всю рекламу на сайте (укажите свой ник в строку Ваше имя)!

×
  
Magnet ссылка

Левша / Southpaw (Антуан Фукуа) [2015, драма, спорт, боевик, WEB-DLRip-AVC] DUB - Лицензия / iTunes freetor.icu

Левша через торрент freetor.icu

Размер: 2.14 GB | Добавлен: 6 лет 3 мес. назад | Торрент скачан:360 раз
Смотреть онлайн Левша | Скачать    Ребята, помогите собрать деньги на оплату серверов!!!

01-09-2015 12:35 Левша Скачать торрент  


«Преодолей судьбу»
Год выпуска: 2015
Страна: США
Жанр: драма, спорт, боевик, триллер
Продолжительность: 02:03:46
Перевод: Дубляж - [Лицензия / iTunes]
Субтитры: английские
Режиссер: Антуан Фукуа
В ролях: Джейк Джилленхол (Billy Hope), Рэйчел МакАдамс (Maureen Hope), Форест Уитакер (Tick Wills), Уна Лоуренс (Leila Hope), Фифти Сент (Jordan Mains), Скайлан Брукс (Hoppy), Наоми Харрис (Angela Rivera), Виктор Ортис (Ramone), Бо Напп (Jon Jon), Мигель Гомес (Miguel «Magic» Escobar), Доминик Колон (Mikey), Хосе Карабалло (Eli Frost)
Описание:
У боксера Билли Хоупа все было прекрасно: звание чемпиона, красавица-жена и любимая дочка. Но фортуна отворачивается от него: при трагических обстоятельствах погибает любимая жена, дисквалификация на ринге, нулевые доходы, суд лишает его родительских прав... Хоуп должен отстоять звание чемпиона и вернуть дочь. Есть ли у Хоупа шансы на победу? Все решит его знаменитый хук левой...
, MPAA: R - Лицам до 17 лет обязательно присутствие взрослого
Качество: WEB-DLRip-AVC
Формат: MKV
Видео кодек: AVC
Аудио кодек: AC3
Видео: AVC, 1024x434 (2.35:1), 1900 kbps, 23,976 fps, 0,178 bpp
Аудио №1: русский / AC3 / 5.1 / 48 kHz / 384 kbps / 16 bit ||
Аудио №2: английский / AC3 / 2.0 / 48 kHz / 192 kbps / 16 bit

Код:

General
Unique ID                   : 183089194408115491239465578712241035381 (0x89BDB23A3109575EA22703DA14585875)
Complete name               : E:\торрент\Southpaw.2015.D.AVC.WEB-DL.X264.itunes.mkv
Format                      : Matroska
Format version              : Version 4 / Version 2
File size                   : 2.14 GiB
Duration                    : 2h 3mn
Overall bit rate            : 2 478 Kbps
Encoded date                : UTC 2015-08-31 06:34:55
Writing application         : mkvmerge v8.1.0 ('Psychedelic Postcard') 32bit
Writing library             : Lavf56.22.100
DURATION                    : 01:59:44.244000000
NUMBER_OF_FRAMES            : 2383
NUMBER_OF_BYTES             : 78495
_STATISTICS_WRITING_APP     : mkvmerge v8.1.0 ('Psychedelic Postcard') 32bit
_STATISTICS_WRITING_DATE_UT : 2015-08-31 21:52:43
_STATISTICS_TAGS            : BPS DURATION NUMBER_OF_FRAMES NUMBER_OF_BYTES

Video
ID                          : 1
Format                      : AVC
Format/Info                 : Advanced Video Codec
Format profile              : [email protected]
Format settings, CABAC      : Yes
Format settings, ReFrames   : 11 frames
Codec ID                    : V_MPEG4/ISO/AVC
Duration                    : 2h 3mn
Bit rate                    : 1 900 Kbps
Width                       : 1 024 pixels
Height                      : 434 pixels
Display aspect ratio        : 2.35:1
Frame rate mode             : Constant
Frame rate                  : 23.976 fps
Standard                    : Component
Color space                 : YUV
Chroma subsampling          : 4:2:0
Bit depth                   : 8 bits
Scan type                   : Progressive
Bits/(Pixel*Frame)          : 0.178
Stream size                 : 1.60 GiB (75%)
Writing library             : x264 core 144 r2525
Encoding settings           : cabac=1 / ref=11 / deblock=1:0:-1 / analyse=0x3:0x102 / me=umh / subme=9 / psy=1 / psy_rd=1.00:1.00 / mixed_ref=0 / me_range=32 / chroma_me=1 / trellis=1 / 8x8dct=1 / cqm=0 / deadzone=21,21 / fast_pskip=1 / chroma_qp_offset=-4 / threads=6 / lookahead_threads=1 / sliced_threads=0 / nr=0 / decimate=1 / interlaced=0 / bluray_compat=0 / constrained_intra=0 / bframes=11 / b_pyramid=0 / b_adapt=1 / b_bias=11 / direct=3 / weightb=1 / open_gop=1 / weightp=2 / keyint=239 / keyint_min=23 / scenecut=40 / intra_refresh=0 / rc_lookahead=33 / rc=2pass / mbtree=1 / bitrate=1900 / ratetol=1.0 / qcomp=0.90 / qpmin=16 / qpmax=69 / qpstep=12 / cplxblur=20.0 / qblur=0.5 / vbv_maxrate=35000 / vbv_bufsize=44000 / nal_hrd=none / filler=0 / ip_ratio=1.40 / aq=1:1.00
Default                     : Yes
Forced                      : No
Color range                 : Limited
DURATION                    : 02:03:46.294000000
NUMBER_OF_FRAMES            : 178053
NUMBER_OF_BYTES             : 1763361047
_STATISTICS_WRITING_APP     : mkvmerge v8.1.0 ('Psychedelic Postcard') 32bit
_STATISTICS_WRITING_DATE_UT : 2015-08-31 21:52:43
_STATISTICS_TAGS            : BPS DURATION NUMBER_OF_FRAMES NUMBER_OF_BYTES

Audio #1
ID                          : 2
Format                      : AC-3
Format/Info                 : Audio Coding 3
Mode extension              : CM (complete main)
Format settings, Endianness : Big
Codec ID                    : A_AC3
Duration                    : 2h 3mn
Bit rate mode               : Constant
Bit rate                    : 384 Kbps
Channel(s)                  : 6 channels
Channel positions           : Front: L C R, Side: L R, LFE
Sampling rate               : 48.0 KHz
Compression mode            : Lossy
Delay relative to video     : -42ms
Stream size                 : 340 MiB (15%)
Language                    : Russian
Default                     : Yes
Forced                      : No

Audio #2
ID                          : 3
Format                      : AC-3
Format/Info                 : Audio Coding 3
Mode extension              : CM (complete main)
Format settings, Endianness : Big
Codec ID                    : A_AC3
Duration                    : 2h 3mn
Bit rate mode               : Constant
Bit rate                    : 192 Kbps
Channel(s)                  : 2 channels
Channel positions           : Front: L R
Sampling rate               : 48.0 KHz
Compression mode            : Lossy
Delay relative to video     : -42ms
Stream size                 : 170 MiB (8%)
Language                    : English
Default                     : No
Forced                      : No

Text
ID                          : 4
Format                      : UTF-8
Codec ID                    : S_TEXT/UTF8
Codec ID/Info               : UTF-8 Plain Text
Language                    : English
Default                     : No
Forced                      : No

freetor.icu



Скачать Левша через торрент https://pic1.kartinco.top/images/10/hwlor.jpg Скачать, смотреть онлайн Левша бесплантно в хорошем качестве Описание: У боксера Билли Хоупа все было прекрасно: звание чемпиона, красавица-жена и любимая дочка. Но фортуна отворачивается от него: при ... 9.2 10 12
Info! Золотая раздача, скачанное не засчитывается.
Торрент: Зарегистрирован [2015-09-01 12:35] · скачан: 360 раз
Статус: √ проверено
Размер: 2.14 GB
Как cкачать? Как скачать Левша через торрент | UTorrent

% Раздел Тема Автор DL S | L
Фильмы 2015 [DVDrip, WEB-DLRip, HDrip] [ 2.05 GB ] Левша / Southpaw [2015 HDRip] killermax2013 Скачать
1 | 0

28-11-2019 20:33  

Отключить всю рекламу на сайте

    Дорогой пользователь! Огромная просьба, поблагодарите релизера, оцените раздачу и оставьте свои комментарий, если Вы скачали Левша через торрент бесплатно!
    Комментировать посты могут только пользователи прошедшие не сложную регистрацию
    Показать сообщения:    

    Левша через торрент
    Скачать бесплатно Левша
    Левша скачать торрент
    Левша смотреть онлайн
    Cкачать фильм Левша бесплатно
    Левша скачать торрент в хорошем качестве
    Левша смотреть онлайн бесплатно в хорошем качестве


    Вы не можете начинать темы
    Вы не можете отвечать на сообщения
    Вы не можете редактировать свои сообщения
    Вы не можете удалять свои сообщения
    Вы не можете голосовать в опросах
    Вы не можете прикреплять файлы к сообщениям
    Вы можете скачивать файлы