Anonymous, доброй ночи, присоединяйтесь к нам в Telegram!, здесь всегда актуальный адрес сайта, оперативная поддержка и многое другое!

>

5.6

iTunes

7.4

MVO

5.7

MVO

1

7.7

1 сезон

6.8

iTunes

7.3

1 сезон

13

6.7

1 сезон

8.3

RePack

30

ULTIMATE

pack

9.9

Лицензия

ВАЖНО

ИГРА 18+

pack

7.3

RePack

MK11

7.7

RePack

jed

7.8

RePack

fifa19

8.5

RePack

RDR2

RePack

NEED FOR SPEED™ PAYBACK

4 сезон

9 сезон

Бесстыжие 9 сезон

Все сериалы

все сериалы на PB.wtf

RePack

FAR CRY 5

Anonymous, доброй ночи, мы катастрофически не успеваем собрать деньги на оплату серверов, помогите нам пожалуйста 5,10,15р., для нас важна любая помощь . В качестве благодарности мы отключим Вам всю рекламу на сайте (укажите свой ник в строку Ваше имя)!

×
  
Magnet ссылка

Константин Заслонов (Александр Файнциммер, Владимир Корш-Саблин) [1949, СССР, боевик, драма, военный, DVDRip от AVP Studio] freetor.icu

Константин Заслонов через торрент freetor.icu

Размер: 1.09 GB | Добавлен: 6 лет 1 мес. назад | Торрент скачан:9 раз
Смотреть онлайн Константин Заслонов | Скачать    Ребята, помогите собрать деньги на оплату серверов!!!

23-08-2015 07:19 Константин Заслонов Скачать торрент  

Константин Заслонов
Страна: СССР
Производство: Беларусьфильм

Жанр: боевик, драма, военный
Год выпуска: 1949
Продолжительность: 01:10:52

Перевод: Не требуется
Cубтитры: нет
Оригинальная аудиодорожка: русский

Режиссер: Александр Файнциммер, Владимир Корш-Саблин

В ролях:
Владимир Дружников, Юрий Толубеев, Александр Хвыля, Глеб Глебов, Владимир Дорофеев, Владимир Дедюшко, Владимир Балашов, Инна Кондратьева, Лидия Штыкан, Владимир Марьев, Яков Малютин, Геннадий Мичурин, Владимир Соловьёв, Лев Фенин, Здислав Стомма, Татьяна Барышева, Эльвира (Эльва) Луценко...
Полный список актёров

Описание:
Историко-биографический фильм по пьесе А. Мовзона.
Фильм рассказывает о борьбе белорусских партизан в годы Великой Отечественной войны под руководством бывшего инженера, легендарного организатора и руководителя партизанского движения К.С.Заслонова (1910-1942).
Осень 1941 года. После эвакуации начальник Оршанского депо Заслонов (Владимир Дружников) обращается в ЦК КП Белоруссии с предложением о создании подпольной группы и получает от секретаря ЦК задание вернуться в Оршу. Заслонов без труда устраивается на работу в депо, так как немцам очень нужны опытные специалисты. Подпольщики получают от инженера задание делать угольные мины и взрывать паровозы. А вскоре Константину Заслонову и его помощникам удается полностью парализовать деятельность узла, заморозив его водную систему. Немцы арестовывают Заслонова, но ему удается бежать во время атаки советской авиации. Он принимает командование всеми партизанскими отрядами Оршанской зоны и ведет своих бойцов, среди которых его соратники по подпольной борьбе, в бой...

Источник: DVD5 R5
Качество видео: DVDRip
Формат видео: AVI
Видео кодек: XviD
Аудио кодек: AC3
Видео: 688x512 (4:3), 25 fps, XviD ~ 2001 kbps avg, 0.227 bit/pixel
Аудио: 48 kHz, Dolby Digital AC3 2.0, 192 kbps

Раздача от:
Общее
Полное имя : Konstantin.Zaslonov.1949.DVDRip_[New-team]_by_AVP_Studio.avi
Формат : AVI
Формат/Информация : Audio Video Interleave
Размер файла : 1,09 Гбайт
Продолжительность : 1 ч. 10 м.
Общий поток : 2203 Кбит/сек
Программа кодирования : VirtualDubMod 1.5.10.3 | www.virtualdub-fr.org || (build 2550/release)
Библиотека кодирования : VirtualDubMod build 2550/release

Видео
Идентификатор : 0
Формат : MPEG-4 Visual
Профиль формата : Advanced Simple@L5
Параметр BVOP формата : 1
Параметр QPel формата : Нет
Параметр GMC формата : Без точки перехода
Параметр матрицы формата : Выборочная
Идентификатор кодека : XVID
Идентификатор кодека/Подсказка : XviD
Продолжительность : 1 ч. 10 м.
Битрейт : 2001 Кбит/сек
Ширина : 688 пикселей
Высота : 512 пикселей
Соотношение сторон : 4:3
Частота кадров : 25,000 кадров/сек
Цветовое пространство : YUV
Субдискретизация насыщенности : 4:2:0
Битовая глубина : 8 бит
Тип развёртки : Прогрессивная
Метод сжатия : С потерями
Бит/(Пиксели*Кадры) : 0.227
Размер потока : 1014 Мбайт (91%)
Библиотека кодирования : XviD 73

Аудио
Идентификатор : 1
Формат : AC-3
Формат/Информация : Audio Coding 3
Расширение режима : CM (complete main)
Параметр Endianness формата : Big
Идентификатор кодека : 2000
Продолжительность : 1 ч. 10 м.
Вид битрейта : Постоянный
Битрейт : 192 Кбит/сек
Каналы : 2 канала
Расположение каналов : Front: L R
Частота : 48,0 КГц
Метод сжатия : С потерями
Размер потока : 97,3 Мбайт (9%)
Выравнивание : Разделение по промежуткам
Продолжительность промежутка : 40 мс. (1,00 видеокадр)
Время предзагрузки промежутка : 500 мс
freetor.icu



Скачать Константин Заслонов через торрент http://s017.radikal.ru/i432/1508/0d/04aad2f6c6f4.png Скачать, смотреть онлайн Константин Заслонов бесплантно в хорошем качестве Описание:Историко-биографический фильм по пьесе А. Мовзона.Фильм рассказывает о борьбе белорусских партизан в годы Великой Отечественной ... 10 10 3
Торрент: Зарегистрирован [2015-08-23 07:19] · скачан: 9 раз
Статус: √ проверено
Размер: 1.09 GB
Как cкачать? Как скачать Константин Заслонов через торрент | UTorrent

% Раздел Тема Автор DL S | L
Кино СССР [ 1.09 GB ] Константин Заслонов [1949 СССР военный DVDRip-AVC от AVP Studio] AVP Studio Скачать
1 | 0
Кино СССР [ 745 MB ] Константин Заслонов [1949 СССР военный DVDRip от AVP Studio] AVP Studio Скачать
1 | 0

28-11-2019 20:33  

Отключить всю рекламу на сайте

    Дорогой пользователь! Огромная просьба, поблагодарите релизера, оцените раздачу и оставьте свои комментарий, если Вы скачали Константин Заслонов через торрент бесплатно!
    Комментировать посты могут только пользователи прошедшие не сложную регистрацию
    Показать сообщения:    

    Константин Заслонов через торрент
    Скачать бесплатно Константин Заслонов
    Константин Заслонов скачать торрент
    Константин Заслонов смотреть онлайн
    Cкачать фильм Константин Заслонов бесплатно
    Константин Заслонов скачать торрент в хорошем качестве
    Константин Заслонов смотреть онлайн бесплатно в хорошем качестве


    Вы не можете начинать темы
    Вы не можете отвечать на сообщения
    Вы не можете редактировать свои сообщения
    Вы не можете удалять свои сообщения
    Вы не можете голосовать в опросах
    Вы не можете прикреплять файлы к сообщениям
    Вы можете скачивать файлы