Присоединяйтесь к нам в Telegram!, здесь всегда актуальный адрес сайта, оперативная поддержка и многое другое!!

>

5.9

iTunes

7.4

iTunes

9.4

1 сезон

1

7.4

2 сезон

7.2

iTunes

7.3

iTunes

13

6.1

iTunes

8.3

Пиратка

30

ULTIMATE

pack

9.9

Лицензия

ВАЖНО

ИГРА 18+

pack

7.3

RePack

MK11

7.7

RePack

jed

7.8

RePack

fifa19

8.5

RePack

RDR2

RePack

NEED FOR SPEED™ PAYBACK

5 сезон

9 сезон

Бесстыжие 9 сезон

Все сериалы

все сериалы на PB.wtf

RePack

FAR CRY 5

Anonymous, доброе утро, мы катастрофически не успеваем собрать деньги на оплату серверов, помогите нам пожалуйста 5,10,15р., для нас важна любая помощь . В качестве благодарности мы отключим Вам всю рекламу на сайте (укажите свой ник в строку Ваше имя)!

×
  
Magnet ссылка

Любовь вразнос / Papa ou maman (Мартин Бурбулон) [2015, комедия, HDRip, Дубляж - iTunes] freetor.icu

Любовь вразнос через торрент freetor.icu

Размер: 1.37 GB | Добавлен: 6 лет 3 мес. назад | Торрент скачан:3208 раз
Смотреть онлайн Любовь вразнос | Скачать    Ребята, помогите собрать деньги на оплату серверов!!!

19-08-2015 20:18 Любовь вразнос Скачать торрент  

Любовь вразнос / Papa ou maman


Год выпуска: 2015
Страна: Франция, Бельгия
Жанр: комедия

Продолжительность: 01:23:57
Перевод: Дубляж - [iTunes]
Режиссер: Мартин Бурбулон
В ролях:

Лоран Лафитт (Vincent Leroy), Марина Фоис (Florence Leroy), Александр Десрусу (Mathias Leroy), Анна Лемаршан (Emma Leroy), Акилле Потье (Julien Leroy), Жюдит Эль Зейн (Virginie), Микаэль Абитбуль (Paul), Ванесса Гуид (Marion), Мишель Вюйермоз (Coutine), Анн Ле Ни (La juge), Ив Верховен (Henri), Янник Шуара (Xavier)

Описание:
Они безбашенные и отвязные, и любят вразнос. Изменило ли их время и обстоятельства? Чтобы проверить это, они идут на крайние меры - объявляют друг другу войну. А на войне, как известно, все средства хороши.
Рейтинг:


Качество: HDRip
Формат: AVI
Видео кодек: XviD
Аудио кодек: AC3
Видео: XviD, 720x304 (2.35:1), 1740 kbps, 24 fps, 0,331 bpp
Аудио №1: Russian / AC3 / 5.1 / 48 kHz / 384 kbps / 16 bit
Аудио №2: French / AC3 / 2.0 / 48 kHz / 192 kbps / 16 bit

Код:

General
Complete name                            : E:\Films\Lyub07.Vr4zH0s.2015.D.HDRip.1400MB.avi
Format                                   : AVI
Format/Info                              : Audio Video Interleave
File size                                : 1.37 GiB
Duration                                 : 1h 23mn
Overall bit rate                         : 2 331 Kbps
Writing application                      : VirtualDubMod 1.5.10.3 | www.virtualdub-fr.org || (build 2550/release)
Writing library                          : VirtualDubMod build 2550/release

Video
ID                                       : 0
Format                                   : MPEG-4 Visual
Format profile                           : Advanced [email protected]
Format settings, BVOP                    : 2
Format settings, QPel                    : No
Format settings, GMC                     : No warppoints
Format settings, Matrix                  : Default (MPEG)
Codec ID                                 : XVID
Codec ID/Hint                            : XviD
Duration                                 : 1h 23mn
Bit rate                                 : 1 741 Kbps
Width                                    : 720 pixels
Height                                   : 304 pixels
Display aspect ratio                     : 2.35:1
Frame rate                               : 24.000 fps
Color space                              : YUV
Chroma subsampling                       : 4:2:0
Bit depth                                : 8 bits
Scan type                                : Progressive
Compression mode                         : Lossy
Bits/(Pixel*Frame)                       : 0.331
Stream size                              : 1.02 GiB (75%)
Writing library                          : XviD 1.2.1 (UTC 2008-12-04)

Audio #1
ID                                       : 1
Format                                   : AC-3
Format/Info                              : Audio Coding 3
Mode extension                           : CM (complete main)
Codec ID                                 : 2000
Duration                                 : 1h 23mn
Bit rate mode                            : Constant
Bit rate                                 : 384 Kbps
Channel(s)                               : 6 channels
Channel positions                        : Front: L C R, Side: L R, LFE
Sampling rate                            : 48.0 KHz
Bit depth                                : 16 bits
Compression mode                         : Lossy
Stream size                              : 231 MiB (16%)
Alignment                                : Split accross interleaves
Interleave, duration                     : 42 ms (1.00 video frame)
Interleave, preload duration             : 500 ms

Audio #2
ID                                       : 2
Format                                   : AC-3
Format/Info                              : Audio Coding 3
Mode extension                           : CM (complete main)
Codec ID                                 : 2000
Duration                                 : 1h 23mn
Bit rate mode                            : Constant
Bit rate                                 : 192 Kbps
Channel(s)                               : 2 channels
Channel positions                        : Front: L R
Sampling rate                            : 48.0 KHz
Bit depth                                : 16 bits
Compression mode                         : Lossy
Stream size                              : 115 MiB (8%)
Alignment                                : Split accross interleaves
Interleave, duration                     : 42 ms (1.00 video frame)
Interleave, preload duration             : 500 ms



freetor.icu



Скачать Любовь вразнос через торрент http://i5.imageban.ru/out/2015/08/19/9d38dd100a8cfd9762a8b68402d975e4.jpg Скачать, смотреть онлайн Любовь вразнос бесплантно в хорошем качестве Описание: Они безбашенные и отвязные, и любят вразнос. Изменило ли их время и обстоятельства? Чтобы проверить это, они идут на крайние меры ... 9.9 10 73
Торрент: Зарегистрирован [2015-08-19 20:18] · скачан: 3 208 раз
Статус: √ проверено
Размер: 1.37 GB
Как cкачать? Как скачать Любовь вразнос через торрент | UTorrent

% Раздел Тема Автор DL S | L
Фильмы (Blu-ray, BD-Remux, HDDVD) [ 15.89 GB ] Любовь вразнос / Papa ou maman [2014 Blu-Ray / ] Ворон Скачать
1 | 0
Фильмы 2014 [DVDrip, WEB-DLRip, HDrip] [ 1.46 GB ] Любовь вразнос / Papa ou maman [2014 BDRip-AVC] DUB potroks Скачать
1 | 0
Фильмы 2015 [DVDrip, WEB-DLRip, HDrip] [ 1.46 GB ] Любовь вразнос / Papa ou maman [2015 BDRip] DUB Twi7ter Скачать
1 | 0
Фильмы [HD 720p, 1080p] (Хороший звук DUB, MVO) [ 6.78 GB ] Любовь вразнос / Papa ou maman BDRip 1080p / DEVI Скачать
1 | 0
Фильмы [HD 720p, 1080p] (Хороший звук DUB, MVO) [ 4.6 GB ] Любовь вразнос / Papa ou maman [2015 BDRip 720p / ] DEVI Скачать
1 | 0

28-11-2019 20:33  

Отключить всю рекламу на сайте

19-08-2015 20:50 Любовь вразнос Скачать торрент  

\1freetor.icu



22-08-2015 10:32 Любовь вразнос Скачать торрент  

Перевод: Дубляж - [iTunes] французскийfreetor.icu



22-08-2015 16:23 Любовь вразнос Скачать торрент  

lisafjev.sergei писал(а):

Перевод: Дубляж - [iTunes] французский

Аудио №1: Russian / AC3 / 5.1 / 48 kHz / 384 kbps / 16 bit
Аудио №2: French / AC3 / 2.0 / 48 kHz / 192 kbps / 16 bit
Зачем менять дорожку, если можно написать бред в комментах.freetor.icu



29-08-2015 16:03 Любовь вразнос Скачать торрент  

Цитата:

Любовь вразнос / Papa ou maman (Мартин Бурбулон) [2015, комедия, HDRip, Дубляж - iTunes]

Люди не смотрите этот ШЕДЕВР пожалстаfreetor.icu



31-08-2015 14:32 Любовь вразнос Скачать торрент  

Спасибо за совет. не буду смотретьfreetor.icu



04-09-2015 22:03 Любовь вразнос Скачать торрент  

как фильм? :pleasantry:freetor.icu



    Дорогой пользователь! Огромная просьба, поблагодарите релизера, оцените раздачу и оставьте свои комментарий, если Вы скачали Любовь вразнос через торрент бесплатно!
    Комментировать посты могут только пользователи прошедшие не сложную регистрацию
    Показать сообщения:    

    Любовь вразнос через торрент
    Скачать бесплатно Любовь вразнос
    Любовь вразнос скачать торрент
    Любовь вразнос смотреть онлайн
    Cкачать фильм Любовь вразнос бесплатно
    Любовь вразнос скачать торрент в хорошем качестве
    Любовь вразнос смотреть онлайн бесплатно в хорошем качестве


    Вы не можете начинать темы
    Вы не можете отвечать на сообщения
    Вы не можете редактировать свои сообщения
    Вы не можете удалять свои сообщения
    Вы не можете голосовать в опросах
    Вы не можете прикреплять файлы к сообщениям
    Вы можете скачивать файлы