Присоединяйтесь к нам в Telegram!, здесь всегда актуальный адрес сайта, оперативная поддержка и многое другое!!

>

5.9

iTunes

7.4

iTunes

9.4

1 сезон

1

7.4

2 сезон

7.2

iTunes

7.3

iTunes

13

6.1

iTunes

8.3

Пиратка

30

ULTIMATE

pack

9.9

Лицензия

ВАЖНО

ИГРА 18+

pack

7.3

RePack

MK11

7.7

RePack

jed

7.8

RePack

fifa19

8.5

RePack

RDR2

RePack

NEED FOR SPEED™ PAYBACK

5 сезон

9 сезон

Бесстыжие 9 сезон

Все сериалы

все сериалы на PB.wtf

RePack

FAR CRY 5

Anonymous, доброе утро, мы катастрофически не успеваем собрать деньги на оплату серверов, помогите нам пожалуйста 5,10,15р., для нас важна любая помощь . В качестве благодарности мы отключим Вам всю рекламу на сайте (укажите свой ник в строку Ваше имя)!

×
  
Magnet ссылка

Мордекай / Mortdecai (Дэвид Кепп) [2015, боевик, мелодрама, комедия, HDRip, Дубляж - Лицензия / iTunes] freetor.icu

Мордекай через торрент freetor.icu

Размер: 2.05 GB | Добавлен: 6 лет 3 мес. назад | Торрент скачан:731 раз
Смотреть онлайн Мордекай | Скачать    Ребята, помогите собрать деньги на оплату серверов!!!

18-08-2015 07:43 Мордекай Скачать торрент  

Мордекай / Mortdecai


Год выпуска: 2015
Страна: Великобритания, США
Жанр: боевик, мелодрама, комедия, детектив

Продолжительность: 01:46:42
Перевод: Дубляж - [Лицензия / iTunes]
Режиссер: Дэвид Кепп
В ролях:

Джонни Депп (Mortdecai), Гвинет Пэлтроу (Johanna), Пол Беттани (Jock), Юэн МакГрегор (Martland), Оливия Манн (Georgina), Джонатон Пасвольски (Emil), Майкл Калкин (Sir Graham), Ульрих Томсен (Romanov), Алек Утгофф (Dmitri), Роб де Гроот (Vladimir), Гай Бернет (Maurice), Джефф Голдблюм (Krampf)

Описание:
В центре сюжета - история Чарльза Мордекая, обходительного арт-дельца и жулика по совместительству, который путешествует по всему миру и с помощью своего неотразимого обаяния пытается раздобыть украденную картину. По слухам, в этом произведении искусства содержится код доступа к банковской ячейке, наполненной нацистским золотом. По ходу Мордекаю приходится улаживать дела с недобрыми русскими, британской разведкой Mi5, международным террористом и со своей умопомрачительно длинноногой женой.
Рейтинг:

MPAA: R - Лицам до 17 лет обязательно присутствие взрослого

Качество: HDRip
Формат: AVI
Видео кодек: XviD
Аудио кодек: AC3
Видео: XviD, 720x304 (2.35:1), 1965 kbps, 23,976 fps, 0,375 bpp
Аудио №1: Русский / AC3 / 5.1 / 48 kHz / 384 kbps / 16 bit
Аудио №2: Английский AC3 / 5.1 / 48 kHz / 384 kbps / 16 bit

Код:

General
Complete name                            : E:\Films\Mortdecai.2015.D.BDRip.2100MB.avi
Format                                   : AVI
Format/Info                              : Audio Video Interleave
Format profile                           : OpenDML
File size                                : 2.05 GiB
Duration                                 : 1h 46mn
Overall bit rate                         : 2 752 Kbps
Writing application                      : VirtualDubMod 1.5.10.2 (build 2540/release)
Writing library                          : VirtualDubMod build 2540/release

Video
ID                                       : 0
Format                                   : MPEG-4 Visual
Format profile                           : Advanced [email protected]
Format settings, BVOP                    : 2
Format settings, QPel                    : No
Format settings, GMC                     : No warppoints
Format settings, Matrix                  : Default (MPEG)
Codec ID                                 : XVID
Codec ID/Hint                            : XviD
Duration                                 : 1h 46mn
Bit rate                                 : 1 966 Kbps
Width                                    : 720 pixels
Height                                   : 304 pixels
Display aspect ratio                     : 2.35:1
Frame rate                               : 23.976 fps
Color space                              : YUV
Chroma subsampling                       : 4:2:0
Bit depth                                : 8 bits
Scan type                                : Progressive
Compression mode                         : Lossy
Bits/(Pixel*Frame)                       : 0.375
Stream size                              : 1.47 GiB (71%)
Writing library                          : XviD 1.2.1 (UTC 2008-12-04)

Audio #1
ID                                       : 1
Format                                   : AC-3
Format/Info                              : Audio Coding 3
Mode extension                           : CM (complete main)
Codec ID                                 : 2000
Duration                                 : 1h 46mn
Bit rate mode                            : Constant
Bit rate                                 : 384 Kbps
Channel(s)                               : 6 channels
Channel positions                        : Front: L C R, Side: L R, LFE
Sampling rate                            : 48.0 KHz
Bit depth                                : 16 bits
Compression mode                         : Lossy
Stream size                              : 293 MiB (14%)
Alignment                                : Split accross interleaves
Interleave, duration                     : 42 ms (1.00 video frame)
Interleave, preload duration             : 500 ms

Audio #2
ID                                       : 2
Format                                   : AC-3
Format/Info                              : Audio Coding 3
Mode extension                           : CM (complete main)
Codec ID                                 : 2000
Duration                                 : 1h 46mn
Bit rate mode                            : Constant
Bit rate                                 : 384 Kbps
Channel(s)                               : 6 channels
Channel positions                        : Front: L C R, Side: L R, LFE
Sampling rate                            : 48.0 KHz
Bit depth                                : 16 bits
Compression mode                         : Lossy
Stream size                              : 293 MiB (14%)
Alignment                                : Split accross interleaves
Interleave, duration                     : 42 ms (1.00 video frame)
Interleave, preload duration             : 500 ms



freetor.icu



Скачать Мордекай через торрент http://i1.imageban.ru/out/2015/08/18/8d93b9611ea8cd2c4b9f2fd8445df320.jpg Скачать, смотреть онлайн Мордекай бесплантно в хорошем качестве Описание: В центре сюжета - история Чарльза Мордекая, обходительного арт-дельца и жулика по совместительству, который путешествует по всему ... 9.9 10 16
Торрент: Зарегистрирован [2015-08-18 07:43] · скачан: 731 раз
Статус: √ проверено
Размер: 2.05 GB
Как cкачать? Как скачать Мордекай через торрент | UTorrent

% Раздел Тема Автор DL S | L
Фильмы [HD 720p, 1080p] (Хороший звук DUB, MVO) [ 4.18 GB ] Мордекай / Mortdecai [2015 BDRip 720p] Dub potroks Скачать
1 | 0
Фильмы (Blu-ray, BD-Remux, HDDVD) [ 29.65 GB ] Мордекай / Mortdecai [2015 BD-Remux ] Бумер Скачать
1 | 0
Фильмы 2015 [DVDrip, WEB-DLRip, HDrip] [ 2.13 GB ] Мордекай / Mortdecai [2015 BDRip-AVC] Dub potroks Скачать
1 | 0
Фильмы 2015 [DVDrip, WEB-DLRip, HDrip] [ 1.46 GB ] Мордекай / Mortdecai [2015 HDRip] killermax2013 Скачать
1 | 0
Фильмы 2015 [DVDrip, WEB-DLRip, HDrip] [ 704 MB ] Мордекай / Mortdecai [2015 HDRip ""] coc900 Скачать
1 | 0
Фильмы 2015 [DVDrip, WEB-DLRip, HDrip] [ 1.46 GB ] Мордекай / Mortdecai [2015 BDRip-AVC отpotroks] Dub potroks Скачать
2 | 0
Фильмы 2015 [DVDrip, WEB-DLRip, HDrip] [ 1.41 GB ] Мордекай / Mortdecai [2015 BDRip ] Twi7ter Скачать
1 | 0

28-11-2019 20:33  

Отключить всю рекламу на сайте

18-08-2015 16:26 Мордекай Скачать торрент  

Супер фильм!!! freetor.icu



18-08-2015 16:50 Мордекай Скачать торрент  

я чуть было не уснул пот этот видик .... но не уснул) Приключений многоfreetor.icu



18-08-2015 16:53 Мордекай Скачать торрент  

я чуть было не уснул пот этот видик .... но не уснул) Приключений много! Смотреть тому, кому торопиться не зачем, и спать пора и не хочется)freetor.icu



    Дорогой пользователь! Огромная просьба, поблагодарите релизера, оцените раздачу и оставьте свои комментарий, если Вы скачали Мордекай через торрент бесплатно!
    Комментировать посты могут только пользователи прошедшие не сложную регистрацию
    Показать сообщения:    

    Мордекай через торрент
    Скачать бесплатно Мордекай
    Мордекай скачать торрент
    Мордекай смотреть онлайн
    Cкачать фильм Мордекай бесплатно
    Мордекай скачать торрент в хорошем качестве
    Мордекай смотреть онлайн бесплатно в хорошем качестве


    Вы не можете начинать темы
    Вы не можете отвечать на сообщения
    Вы не можете редактировать свои сообщения
    Вы не можете удалять свои сообщения
    Вы не можете голосовать в опросах
    Вы не можете прикреплять файлы к сообщениям
    Вы можете скачивать файлы