Присоединяйтесь к нам в Telegram!, здесь всегда актуальный адрес сайта, оперативная поддержка и многое другое!!

>

5.9

iTunes

7.4

iTunes

9.4

1 сезон

1

7.4

2 сезон

7.2

iTunes

7.3

1 сезон

13

6.1

iTunes

8.3

GOG

30

ULTIMATE

pack

9.9

Лицензия

ВАЖНО

ИГРА 18+

pack

7.3

RePack

MK11

7.7

RePack

jed

7.8

RePack

fifa19

8.5

RePack

RDR2

RePack

NEED FOR SPEED™ PAYBACK

5 сезон

9 сезон

Бесстыжие 9 сезон

Все сериалы

все сериалы на PB.wtf

RePack

FAR CRY 5

Anonymous, доброй ночи, мы катастрофически не успеваем собрать деньги на оплату серверов, помогите нам пожалуйста 5,10,15р., для нас важна любая помощь . В качестве благодарности мы отключим Вам всю рекламу на сайте (укажите свой ник в строку Ваше имя)!

×
  
Magnet ссылка

Мордекай / Mortdecai (Дэвид Кепп / David Koepp) [2015, боевик, мелодрама, комедия, BDRip-AVC отpotroks] Dub freetor.icu

Мордекай через торрент freetor.icu

Раздают: 1 [ 0 KB/s ]
Размер: 1.46 GB | Добавлен: 6 лет 3 мес. назад | Торрент скачан:1257 раз
Смотреть онлайн Мордекай | Скачать    Ребята, помогите собрать деньги на оплату серверов!!!

18-08-2015 06:46 Мордекай Скачать торрент  

Мордекай / Mortdecai
«У совершенства есть имя»
Год выпуска: 2015
Страна: Великобритания, США / Odd Lot Entertainment...
Жанр: боевик, мелодрама, комедия, детектив
Продолжительность: 01:46:42
Перевод: Дубляж
Субтитры: английские (Full), английские (SDH), английские (SDH-Colored)
Навигация по главам: есть
Режиссер: Дэвид Кепп / David Koepp
В ролях:

Джонни Депп (Mortdecai), Гвинет Пэлтроу (Johanna), Пол Беттани (Jock), Юэн МакГрегор (Martland), Оливия Манн (Georgina), Джонатон Пасвольски (Emil), Майкл Калкин (Sir Graham), Ульрих Томсен (Romanov), Алек Утгофф (Dmitri), Роб де Гроот (Vladimir), Гай Бернет (Maurice), Джефф Голдблюм (Krampf)
Описание: В центре сюжета - история Чарльза Мордекая, обходительного арт-дельца и жулика по совместительству, который путешествует по всему миру и с помощью своего неотразимого обаяния пытается раздобыть украденную картину. По слухам, в этом произведении искусства содержится код доступа к банковской ячейке, наполненной нацистским золотом. По ходу Мордекаю приходится улаживать дела с недобрыми русскими, британской разведкой Mi5, международным террористом и со своей умопомрачительно длинноногой женой.

Качество: BDRip-AVC
Формат: MKV
Видео кодек: AVC
Аудио кодек: AC3
Видео: AVC, 960x400 (2.40:1), 1575 kbps, 23,976 fps, 0,171 bit/pixel
Аудио: AC3 / 5.1 / 48 kHz / 384 kbps / 16 bit
Релиз группы:
Автор рипа: potroks

Код:

General
Unique ID                                : 198837191828512502900524433108893998816 (0x9596A67232F8D7509CA60AD575649EE0)
Complete name                            : N:\Комедия\Mordekay.2015.RUS.BDRip.x264.-HELLYWOOD.mkv
Format                                   : Matroska
Format version                           : Version 4 / Version 2
File size                                : 1.46 GiB
Duration                                 : 1h 46mn
Overall bit rate                         : 1 961 Kbps
Movie name                               : Mortdecai (2015) - HELLYWOOD
Encoded date                             : UTC 2015-08-18 04:29:57
Writing application                      : mkvmerge v5.9.0 ('On The Loose') built on Dec 15 2012 16:39:58
Writing library                          : libebml v1.3.0 + libmatroska v1.4.0

Video
ID                                       : 1
Format                                   : AVC
Format/Info                              : Advanced Video Codec
Format profile                           : [email protected]
Format settings, CABAC                   : Yes
Format settings, ReFrames                : 12 frames
Codec ID                                 : V_MPEG4/ISO/AVC
Duration                                 : 1h 46mn
Bit rate                                 : 1 575 Kbps
Width                                    : 960 pixels
Height                                   : 400 pixels
Display aspect ratio                     : 2.40:1
Frame rate                               : 23.976 fps
Color space                              : YUV
Chroma subsampling                       : 4:2:0
Bit depth                                : 8 bits
Scan type                                : Progressive
Bits/(Pixel*Frame)                       : 0.171
Stream size                              : 1.15 GiB (78%)
Title                                    : potroks
Writing library                          : x264 core 146 r2538 121396c
Encoding settings                        : cabac=1 / ref=12 / deblock=1:-2:-2 / analyse=0x3:0x113 / me=umh / subme=11 / psy=1 / psy_rd=1.04:0.07 / mixed_ref=1 / me_range=32 / chroma_me=1 / trellis=2 / 8x8dct=1 / cqm=0 / deadzone=21,11 / fast_pskip=0 / chroma_qp_offset=-3 / threads=9 / lookahead_threads=2 / sliced_threads=0 / nr=0 / decimate=1 / interlaced=0 / bluray_compat=0 / constrained_intra=0 / bframes=13 / b_pyramid=2 / b_adapt=2 / b_bias=0 / direct=3 / weightb=1 / open_gop=0 / weightp=2 / keyint=250 / keyint_min=23 / scenecut=40 / intra_refresh=0 / rc_lookahead=60 / rc=2pass / mbtree=0 / bitrate=1575 / ratetol=1.0 / qcomp=0.70 / qpmin=0 / qpmax=69 / qpstep=4 / cplxblur=20.0 / qblur=0.5 / vbv_maxrate=14000 / vbv_bufsize=14000 / nal_hrd=none / filler=0 / ip_ratio=1.35 / pb_ratio=1.25 / aq=1:0.80
Language                                 : English
Default                                  : Yes
Forced                                   : No

Audio
ID                                       : 2
Format                                   : AC-3
Format/Info                              : Audio Coding 3
Mode extension                           : CM (complete main)
Codec ID                                 : A_AC3
Duration                                 : 1h 46mn
Bit rate mode                            : Constant
Bit rate                                 : 384 Kbps
Channel(s)                               : 6 channels
Channel positions                        : Front: L C R, Side: L R, LFE
Sampling rate                            : 48.0 KHz
Bit depth                                : 16 bits
Compression mode                         : Lossy
Stream size                              : 293 MiB (20%)
Title                                    : Dub | DD 5.1 @ 384 kbps
Language                                 : Russian
Default                                  : Yes
Forced                                   : No

Text #1
ID                                       : 3
Format                                   : UTF-8
Codec ID                                 : S_TEXT/UTF8
Codec ID/Info                            : UTF-8 Plain Text
Title                                    : Full
Language                                 : English
Default                                  : No
Forced                                   : No

Text #2
ID                                       : 4
Format                                   : UTF-8
Codec ID                                 : S_TEXT/UTF8
Codec ID/Info                            : UTF-8 Plain Text
Title                                    : SDH
Language                                 : English
Default                                  : No
Forced                                   : No

Text #3
ID                                       : 5
Format                                   : UTF-8
Codec ID                                 : S_TEXT/UTF8
Codec ID/Info                            : UTF-8 Plain Text
Title                                    : SDH-Colored
Language                                 : English
Default                                  : No
Forced                                   : No

Menu
00:00:00.000                             : en:Chapter 1
00:05:04.179                             : en:Chapter 2
00:11:31.232                             : en:Chapter 3
00:18:52.548                             : en:Chapter 4
00:24:04.151                             : en:Chapter 5
00:29:49.496                             : en:Chapter 6
00:36:55.797                             : en:Chapter 7
00:42:51.611                             : en:Chapter 8
00:50:03.375                             : en:Chapter 9
00:56:39.688                             : en:Chapter 10
01:03:47.699                             : en:Chapter 11
01:10:07.244                             : en:Chapter 12
01:18:45.304                             : en:Chapter 13
01:24:56.424                             : en:Chapter 14
01:28:58.083                             : en:Chapter 15
01:33:49.248                             : en:Chapter 16

freetor.icu



Скачать Мордекай через торрент http://i70.fastpic.ru/big/2015/0818/31/c945fa6e9bc70e6486967ae978cf3f31.png Скачать, смотреть онлайн Мордекай бесплантно в хорошем качестве Описание: В центре сюжета - история Чарльза Мордекая, обходительного арт-дельца и жулика по совместительству, который путешествует по ... 9.2 10 24
Info! Золотая раздача, скачанное не засчитывается.
Торрент: Зарегистрирован [2015-08-18 06:46] · скачан: 1 257 раз
Статус: √ проверено
Размер: 1.46 GB
Как cкачать? Как скачать Мордекай через торрент | UTorrent

% Раздел Тема Автор DL S | L
Фильмы [HD 720p, 1080p] (Хороший звук DUB, MVO) [ 4.18 GB ] Мордекай / Mortdecai [2015 BDRip 720p] Dub potroks Скачать
1 | 0
Фильмы 2015 [DVDrip, WEB-DLRip, HDrip] [ 2.13 GB ] Мордекай / Mortdecai [2015 BDRip-AVC] Dub potroks Скачать
1 | 0
Фильмы 2015 [DVDrip, WEB-DLRip, HDrip] [ 1.46 GB ] Мордекай / Mortdecai [2015 HDRip] killermax2013 Скачать
1 | 0

28-11-2019 20:33  

Отключить всю рекламу на сайте

19-08-2015 15:50 Мордекай Скачать торрент  

состав актеров супер, обязательно посмотрю данный коктейль freetor.icu



21-08-2015 03:05 Мордекай Скачать торрент  

Очень специфический фильм, второй раз не скоро буду смотреть. Порадовал "Кай Проктер" с фильма "Банши", реали раша ганста маза факэр :rofle:freetor.icu



    Дорогой пользователь! Огромная просьба, поблагодарите релизера, оцените раздачу и оставьте свои комментарий, если Вы скачали Мордекай через торрент бесплатно!
    Комментировать посты могут только пользователи прошедшие не сложную регистрацию
    Показать сообщения:    

    Мордекай через торрент
    Скачать бесплатно Мордекай
    Мордекай скачать торрент
    Мордекай смотреть онлайн
    Cкачать фильм Мордекай бесплатно
    Мордекай скачать торрент в хорошем качестве
    Мордекай смотреть онлайн бесплатно в хорошем качестве


    Вы не можете начинать темы
    Вы не можете отвечать на сообщения
    Вы не можете редактировать свои сообщения
    Вы не можете удалять свои сообщения
    Вы не можете голосовать в опросах
    Вы не можете прикреплять файлы к сообщениям
    Вы можете скачивать файлы