Присоединяйтесь к нам в Telegram!, здесь всегда актуальный адрес сайта, оперативная поддержка и многое другое!!

>

5.9

iTunes

7.4

iTunes

9.4

1 сезон

1

7.4

2 сезон

7.2

iTunes

7.3

1 сезон

13

6.1

iTunes

8.3

Пиратка

30

ULTIMATE

pack

9.9

Лицензия

ВАЖНО

ИГРА 18+

pack

7.3

RePack

MK11

7.7

RePack

jed

7.8

RePack

fifa19

8.5

RePack

RDR2

RePack

NEED FOR SPEED™ PAYBACK

5 сезон

9 сезон

Бесстыжие 9 сезон

Все сериалы

все сериалы на PB.wtf

RePack

FAR CRY 5

Anonymous, доброй ночи, мы катастрофически не успеваем собрать деньги на оплату серверов, помогите нам пожалуйста 5,10,15р., для нас важна любая помощь . В качестве благодарности мы отключим Вам всю рекламу на сайте (укажите свой ник в строку Ваше имя)!

×
  
Magnet ссылка

Дивергент, глава 2: Инсургент / Insurgent (Роберт Швентке / Robert Schwentke) [2015, фантастика, триллер, приключения, BDRip-AVC от potroks] DUB Лицензия freetor.icu

Дивергент, глава 2: Инсургент через торрент freetor.icu

Размер: 1.46 GB | Добавлен: 6 лет 3 мес. назад | Торрент скачан:239 раз
Смотреть онлайн Дивергент, глава 2: Инсургент | Скачать    Ребята, помогите собрать деньги на оплату серверов!!!

14-08-2015 07:05 Дивергент, глава 2: Инсургент Скачать торрент  

Дивергент, глава 2: Инсургент / Insurgent
«В этом мире пора что-то менять»
Год выпуска: 2015
Страна: США / Summit Entertainment, Red Wagon Productions...
Жанр: фантастика, триллер, приключения
Продолжительность: 01:59:00
Перевод: Дубляж [BD RUS]
Субтитры: русские (Notabenoid), русские
Навигация по главам: есть
Режиссер: Роберт Швентке / Robert Schwentke
В ролях:

Шейлин Вудли (Tris), Тео Джеймс (Four), Кейт Уинслет (Jeanine), Джай Кортни (Eric), Энсел Элгорт (Caleb), Майлз Теллер (Peter), Зои Кравиц (Christina), Мекхай Файфер (Max), Наоми Уоттс (Evelyn), Октавия Спенсер (Johanna), Рэй Стивенсон (Marcus), Тони Голдуин (Andrew)
Описание: В новой главе антиутопии об обществе, где все расставлено по полочкам, а любая индивидуальность подлежит искоренению, Трис должна найти способ борьбы со страшной системой, уничтожающей ее близких. Кто из них на очереди? Она узнает все больше страшных подробностей, стоящих за кажущимся порядком, и уже не может не видеть, что в ее мире пора что-то менять. Но главное в этой борьбе - справиться с расколом, который враг порождает в ее собственной душе.

Качество: BDRip-AVC
Формат: MKV
Видео кодек: AVC
Аудио кодек: AC3
Видео: AVC, 960x400 (2.40:1), 1309 kbps, 23,976 fps, 0.142 bit/pixel
Аудио: AC3 / 5.1 / 48 kHz / 448 kbps / 16 bit
Релиз группы:
Автор рипа: potroks

Код:

Общее
Уникальный идентификатор : 227855854302765746456791785927398762545 (0xAB6B70F7C353325EB5CF3EB35221A831)
Полное имя : N:\Фантастика\Divergent.2.Insurgent.2015.RUS.BDRip.x264.-HELLYWOOD.mkv
Формат : Matroska
Версия формата : Version 4 / Version 2
Размер файла : 1,46 Гбайт
Продолжительность : 1 ч. 59 м.
Общий поток : 1758 Кбит/сек
Название фильма : Insurgent (2015) - HELLYWOOD
Дата кодирования : UTC 2015-08-14 06:08:41
Программа кодирования : mkvmerge v5.9.0 ('On The Loose') built on Dec 15 2012 16:39:58
Библиотека кодирования : libebml v1.3.0 + libmatroska v1.4.0

Видео
Идентификатор : 1
Формат : AVC
Формат/Информация : Advanced Video Codec
Профиль формата : [email protected]
Параметр CABAC формата : Да
Параметр ReFrames формата : 12 кадров
Идентификатор кодека : V_MPEG4/ISO/AVC
Продолжительность : 1 ч. 59 м.
Битрейт : 1309 Кбит/сек
Ширина : 960 пикселей
Высота : 400 пикселей
Соотношение сторон : 2,40:1
Режим частоты кадров : Постоянный
Частота кадров : 23,976 кадра/сек
Цветовое пространство : YUV
Субдискретизация насыщенности : 4:2:0
Битовая глубина : 8 бит
Тип развёртки : Прогрессивная
Бит/(Пиксели*Кадры) : 0.142
Размер потока : 1,06 Гбайт (73%)
Заголовок : potroks
Библиотека кодирования : x264 core 146 r2538 121396c
Настройки программы : cabac=1 / ref=12 / deblock=1:-2:-2 / analyse=0x3:0x113 / me=umh / subme=11 / psy=1 / psy_rd=1.02:0.04 / mixed_ref=1 / me_range=48 / chroma_me=1 / trellis=2 / 8x8dct=1 / cqm=0 / deadzone=21,11 / fast_pskip=0 / chroma_qp_offset=-3 / threads=9 / lookahead_threads=2 / sliced_threads=0 / nr=0 / decimate=1 / interlaced=0 / bluray_compat=0 / constrained_intra=0 / bframes=13 / b_pyramid=2 / b_adapt=2 / b_bias=0 / direct=3 / weightb=1 / open_gop=0 / weightp=2 / keyint=250 / keyint_min=23 / scenecut=40 / intra_refresh=0 / rc_lookahead=60 / rc=2pass / mbtree=0 / bitrate=1309 / ratetol=1.0 / qcomp=0.70 / qpmin=0 / qpmax=69 / qpstep=4 / cplxblur=20.0 / qblur=0.5 / vbv_maxrate=14000 / vbv_bufsize=14000 / nal_hrd=none / filler=0 / ip_ratio=1.35 / pb_ratio=1.25 / aq=1:0.80
Язык : English
Default : Да
Forced : Нет

Аудио
Идентификатор : 2
Формат : AC-3
Формат/Информация : Audio Coding 3
Расширение режима : CM (complete main)
Параметр Endianness формата : Big
Идентификатор кодека : A_AC3
Продолжительность : 1 ч. 59 м.
Вид битрейта : Постоянный
Битрейт : 448 Кбит/сек
Каналы : 6 каналов
Расположение каналов : Front: L C R, Side: L R, LFE
Частота : 48,0 КГц
Метод сжатия : С потерями
Размер потока : 381 Мбайт (25%)
Заголовок : Dub | DD 5.1 @ 448 kbps - Blu-Ray RUS
Язык : Russian
Default : Да
Forced : Нет

Текст #1
Идентификатор : 3
Формат : UTF-8
Идентификатор кодека : S_TEXT/UTF8
Идентификатор кодека/Информация : UTF-8 Plain Text
Заголовок : Notabenoid
Язык : Russian
Default : Нет
Forced : Нет

Текст #2
Идентификатор : 4
Формат : UTF-8
Идентификатор кодека : S_TEXT/UTF8
Идентификатор кодека/Информация : UTF-8 Plain Text
Язык : Russian
Default : Нет
Forced : Нет

Меню
00:00:00.000 : en:(01)00:00:00:000
00:06:11.286 : en:(02)00:06:11:286
00:13:35.397 : en:(03)00:13:35:397
00:19:35.007 : en:(04)00:19:35:007
00:26:39.431 : en:(05)00:26:39:431
00:34:23.059 : en:(06)00:34:23:059
00:41:13.846 : en:(07)00:41:13:846
00:46:34.708 : en:(08)00:46:34:708
00:53:10.103 : en:(09)00:53:10:103
00:59:30.358 : en:(10)00:59:30:358
01:05:59.663 : en:(11)01:05:59:663
01:13:34.908 : en:(12)01:13:34:908
01:22:57.930 : en:(13)01:22:57:930
01:32:04.935 : en:(14)01:32:04:935
01:39:09.359 : en:(15)01:39:09:359
01:46:38.641 : en:(16)01:46:38:641
01:59:00.131 : en:(17)01:59:00:131

freetor.icu



Скачать Дивергент, глава 2: Инсургент через торрент http://i69.fastpic.ru/big/2015/0814/7c/763c2d6ea784dbd7653ebc3670794f7c.png Скачать, смотреть онлайн Дивергент, глава 2: Инсургент бесплантно в хорошем качестве Описание: В новой главе антиутопии об обществе, где все расставлено по полочкам, а любая индивидуальность подлежит искоренению, Трис ... 9.1 10 8
Торрент: Зарегистрирован [2015-08-14 07:05] · скачан: 239 раз
Статус: √ проверено
Размер: 1.46 GB
Как cкачать? Как скачать Дивергент, глава 2: Инсургент через торрент | UTorrent

% Раздел Тема Автор DL S | L
Ultra HD (UHD: 2K, 4K, 8K) — видео сверхвысокой чёткости [ 54.74 GB ] Дивергент глава 2: Инсургент / Insurgent [2015 UHD BDRemux 2160p] DUB [] bober100 Скачать
1 | 0
3D Фильмы [ 40.9 GB ] Дивергент глава 2: Инсургент / Insurgent [2015 Blu-Ray 1080p] [3D/2D] [] killermax2013 Скачать
1 | 0
Фильмы [HD 720p, 1080p] (Хороший звук DUB, MVO) [ 12.85 GB ] Дивергент глава 2: Инсургент / Insurgent [2015 BDRip 1080p] DUB Ворон Скачать
1 | 0
Фильмы 2015 [DVDrip, WEB-DLRip, HDrip] [ 745 MB ] Дивергент глава 2: Инсургент / Insurgent [2015 BDRip-AVC от sokol_ok] DUB sokol_ok Скачать
2 | 0
Фильмы 2015 [DVDrip, WEB-DLRip, HDrip] [ 2.18 GB ] Дивергент глава 2: Инсургент / Insurgent [2015 BDRip-AVC от sokol_ok] DUB sokol_ok Скачать
2 | 0
Фильмы 2015 [DVDrip, WEB-DLRip, HDrip] [ 2.19 GB ] Дивергент глава 2: Инсургент / Insurgent [2015 BDRip-AVC] DUB potroks Скачать
1 | 0
Фильмы [HD 720p, 1080p] (Хороший звук DUB, MVO) [ 4.36 GB ] Дивергент глава 2: Инсургент / Insurgent [2015 BDRip 720p] DUB potroks Скачать
1 | 0

28-11-2019 20:33  

Отключить всю рекламу на сайте

    Дорогой пользователь! Огромная просьба, поблагодарите релизера, оцените раздачу и оставьте свои комментарий, если Вы скачали Дивергент, глава 2: Инсургент через торрент бесплатно!
    Комментировать посты могут только пользователи прошедшие не сложную регистрацию
    Показать сообщения:    

    Дивергент, глава 2: Инсургент через торрент
    Скачать бесплатно Дивергент, глава 2: Инсургент
    Дивергент, глава 2: Инсургент скачать торрент
    Дивергент, глава 2: Инсургент смотреть онлайн
    Cкачать фильм Дивергент, глава 2: Инсургент бесплатно
    Дивергент, глава 2: Инсургент скачать торрент в хорошем качестве
    Дивергент, глава 2: Инсургент смотреть онлайн бесплатно в хорошем качестве


    Вы не можете начинать темы
    Вы не можете отвечать на сообщения
    Вы не можете редактировать свои сообщения
    Вы не можете удалять свои сообщения
    Вы не можете голосовать в опросах
    Вы не можете прикреплять файлы к сообщениям
    Вы можете скачивать файлы