Присоединяйтесь к нам в Telegram!, здесь всегда актуальный адрес сайта, оперативная поддержка и многое другое!!

>

5.9

iTunes

7.4

iTunes

9.4

1 сезон

1

7.4

2 сезон

7.2

iTunes

7.3

1 сезон

13

6.1

iTunes

8.3

GOG

30

ULTIMATE

pack

9.9

Лицензия

ВАЖНО

ИГРА 18+

pack

7.3

RePack

MK11

7.7

RePack

jed

7.8

RePack

fifa19

8.5

RePack

RDR2

RePack

NEED FOR SPEED™ PAYBACK

5 сезон

9 сезон

Бесстыжие 9 сезон

Все сериалы

все сериалы на PB.wtf

RePack

FAR CRY 5

Anonymous, доброй ночи, мы катастрофически не успеваем собрать деньги на оплату серверов, помогите нам пожалуйста 5,10,15р., для нас важна любая помощь . В качестве благодарности мы отключим Вам всю рекламу на сайте (укажите свой ник в строку Ваше имя)!

×
  
Magnet ссылка

Джеки и Райан / Jackie & Ryan (Эми Канаан Манн / Ami Canaan Mann) [ 2015 , США , драма , WEB-DLRip] MVO [Официальный звук] freetor.icu

Джеки и Райан через торрент freetor.icu

Размер: 1.37 GB | Добавлен: 6 лет 4 мес. назад | Торрент скачан:178 раз
Смотреть онлайн Джеки и Райан | Скачать    Ребята, помогите собрать деньги на оплату серверов!!!

01-08-2015 07:23 Джеки и Райан Скачать торрент  

Джеки и Райан / Jackie & RyanГод выпуска:2015
Страна: США
Жанр: драма
Продолжительность: 01:30:56
Перевод: Профессиональный (многоголосый, закадровый) [Официальный звук]

Субтитры: Нет
Режиссер: Эми Канаан Манн / Ami Canaan Mann

В ролях: Кэтрин Хайгл (Jackie), Бен Барнс (Ryan), Клеа ДюВалл (Virginia), Эмили Элин Линд (Lia), Шерил Ли (Miriam), Нэйтан Стивенс (Kid), Райан Бингхэм (Cowboy's Brother), Челси Гудвин (Store Clerk), Джеффри Хэнсон (Matt Ridenour), Аллан Гров (Tweed Cap), Джули-Энн Личти (Old Lady), Дэйв Бреснахэн (Festival vendor)
Описание:
История о бродяге, который пытается стать успешным музыкантом, и о матери-одиночке, которая борется за право опеки над своей дочерью. Отношения, складывающиеся между ними, могут изменить их жизни навсегда...
Рейтинг
imdb.com: 5.90 (134)
MPAA: PG-13 - Детям до 13 лет просмотр не желателен
Качество: WEB-DLRip
Формат: AVI
Видео кодек: XviD
Аудио кодек: AC3
Видео: XviD, 720x304 (2.35:1), 1952 kbps, 23,976 fps, 0,372 bpp
Аудио: AC3 / 2.0 / 48 kHz / 192 kbps / 16 bit
© Оформление by ФёдорOFF
General
Complete name : D:\раздачи\Dzheki.i.Rajn.2015.P.WEBDLRip.avi
Format : AVI
Format/Info : Audio Video Interleave
File size : 1.37 GiB
Duration : 1h 30mn
Overall bit rate : 2 154 Kbps
Writing application : VirtualDubMod 1.5.10.2 (build 2540/release)
Writing library : VirtualDubMod build 2540/release

Video
ID : 0
Format : MPEG-4 Visual
Format profile : Advanced [email protected]
Format settings, BVOP : 2
Format settings, QPel : No
Format settings, GMC : No warppoints
Format settings, Matrix : Default (MPEG)
Codec ID : XVID
Codec ID/Hint : XviD
Duration : 1h 30mn
Bit rate : 1 952 Kbps
Width : 720 pixels
Height : 304 pixels
Display aspect ratio : 2.35:1
Frame rate : 23.976 fps
Color space : YUV
Chroma subsampling : 4:2:0
Bit depth : 8 bits
Scan type : Progressive
Compression mode : Lossy
Bits/(Pixel*Frame) : 0.372
Stream size : 1.24 GiB (91%)
Writing library : XviD 1.2.1 (UTC 2008-12-04)

Audio
ID : 1
Format : AC-3
Format/Info : Audio Coding 3
Mode extension : CM (complete main)
Codec ID : 2000
Duration : 1h 30mn
Bit rate mode : Constant
Bit rate : 192 Kbps
Channel(s) : 2 channels
Channel positions : Front: L R
Sampling rate : 48.0 KHz
Bit depth : 16 bits
Compression mode : Lossy
Stream size : 125 MiB (9%)
Alignment : Split accross interleaves
Interleave, duration : 42 ms (1.00 video frame)
Interleave, preload duration : 500 ms
freetor.icu



Скачать Джеки и Райан через торрент http://i6.imageban.ru/out/2015/08/01/ae3f24fa0f2c7823b2b02ad4f037dd8d.jpg Скачать, смотреть онлайн Джеки и Райан бесплантно в хорошем качестве Описание: История о бродяге, который пытается стать успешным музыкантом, и о матери-одиночке, которая борется за право опеки над своей ... 10 10 11
Торрент: Зарегистрирован [2015-08-01 07:23] · скачан: 178 раз
Статус: T временная
Размер: 1.37 GB
Как cкачать? Как скачать Джеки и Райан через торрент | UTorrent

28-11-2019 20:33  

Отключить всю рекламу на сайте

    Дорогой пользователь! Огромная просьба, поблагодарите релизера, оцените раздачу и оставьте свои комментарий, если Вы скачали Джеки и Райан через торрент бесплатно!
    Комментировать посты могут только пользователи прошедшие не сложную регистрацию
    Показать сообщения:    

    Джеки и Райан через торрент
    Скачать бесплатно Джеки и Райан
    Джеки и Райан скачать торрент
    Джеки и Райан смотреть онлайн
    Cкачать фильм Джеки и Райан бесплатно
    Джеки и Райан скачать торрент в хорошем качестве
    Джеки и Райан смотреть онлайн бесплатно в хорошем качестве


    Вы не можете начинать темы
    Вы не можете отвечать на сообщения
    Вы не можете редактировать свои сообщения
    Вы не можете удалять свои сообщения
    Вы не можете голосовать в опросах
    Вы не можете прикреплять файлы к сообщениям
    Вы можете скачивать файлы