Присоединяйтесь к нам в Telegram!, здесь всегда актуальный адрес сайта, оперативная поддержка и многое другое!!

>

5.9

iTunes

7.4

iTunes

9.4

1 сезон

1

7.4

2 сезон

7.2

iTunes

7.3

1 сезон

13

6.1

iTunes

8.3

GOG

30

ULTIMATE

pack

9.9

Лицензия

ВАЖНО

ИГРА 18+

pack

7.3

RePack

MK11

7.7

RePack

jed

7.8

RePack

fifa19

8.5

RePack

RDR2

RePack

NEED FOR SPEED™ PAYBACK

5 сезон

9 сезон

Бесстыжие 9 сезон

Все сериалы

все сериалы на PB.wtf

RePack

FAR CRY 5

Anonymous, доброй ночи, мы катастрофически не успеваем собрать деньги на оплату серверов, помогите нам пожалуйста 5,10,15р., для нас важна любая помощь . В качестве благодарности мы отключим Вам всю рекламу на сайте (укажите свой ник в строку Ваше имя)!

×
  
Magnet ссылка

За закатом рассвет / Away and Back (Джефф Блекнер) [2015 г., драма, комедия, WEB-DLRip, Профессиональный многоголосый закадровый "iTunes"] freetor.icu

За закатом рассвет через торрент freetor.icu

Раздают: 1 [ 0 KB/s ]
Размер: 1.61 GB | Добавлен: 5 лет 4 мес. назад | Торрент скачан:130 раз
Смотреть онлайн За закатом рассвет | Скачать    Ребята, помогите собрать деньги на оплату серверов!!!

28-07-2015 17:32 За закатом рассвет Скачать торрент  

За закатом рассвет / Away and Back
Год выпуска: 2015
Страна: США / Hallmark Hall of Fame Productions
Жанр: драма, комедия
Продолжительность: 01:36:22
Перевод: Профессиональный многоголосый закадровый (iTunes)

Режиссер: Джефф Блекнер

IMDB 6.40 (229)


В ролях: Джейсон Ли, Минка Келли, Мэгги Элизабет Джонс, Джарен Льюисон, Коннор Пейтон, Стивен Миллер, Дэвид Нэйсом, Джарод Джозеф, Михаэла Гилкрист, Райан Норткотт

Описание: Джек — отец-одиночка, воспитывающий троих детей. Вся их семья живет на берегу озера, который в свою очередь граничит с национальным парком, где орнитологи изучают одних из самых красивых птиц — лебедей. И так уж случилось, что одна лебединая пара обустроила свое гнездо как раз неподалеку от того места, где проживают наши герои. И если Джек и его старший сын к этому соседству равнодушны, то младшие — Френки и Кайл решили проявить любопытство.Их визит к гнезду не остался не замеченным. В результате этого пара лебедей атаковала двух детей, нанеся травму старшему из них. А чтобы им и впредь неповадно было соваться — птицы решили нанести свой визит, но только ночью. Но для одной из них этот полет будет последним в ее жизни...

Качество: WEB-DLRip
Формат: AVI
Видео кодек: XviD
Аудио кодек: AC3
Видео: 720x400 (1.80:1), 23.976 fps, XviD build 50 ~1784 kbps avg, 0.26 bit/pixel
Аудио: 48 kHz, AC3 Dolby Digital, 3/2 (L,C,R,l,r) + LFE ch, ~384 kbps
Общее
Полное имя : D:\За закатом рассвет.2015.WEB-DLRip.avi
Формат : AVI
Формат/Информация : Audio Video Interleave
Размер файла : 1,47 Гбайт
Продолжительность : 1 ч. 36 м.
Общий поток : 2178 Кбит/сек
Программа кодирования : VirtualDubMod 1.5.10.3 | www.virtualdub-fr.org || (build 2550/release)
Библиотека кодирования : VirtualDubMod build 2550/release

Видео
Идентификатор : 0
Формат : MPEG-4 Visual
Профиль формата : Advanced [email protected]
Параметр BVOP формата : 2
Параметр QPel формата : Нет
Параметр GMC формата : Без точки перехода
Параметр матрицы формата : Default (H.263)
Идентификатор кодека : XVID
Идентификатор кодека/Подсказка : XviD
Продолжительность : 1 ч. 36 м.
Битрейт : 1785 Кбит/сек
Ширина : 720 пикселей
Высота : 400 пикселей
Соотношение сторон : 16:9
Частота кадров : 23,976 кадра/сек
Цветовое пространство : YUV
Субдискретизация насыщенности : 4:2:0
Битовая глубина : 8 бит
Тип развёртки : Прогрессивная
Метод сжатия : С потерями
Бит/(Пиксели*Кадры) : 0.258
Размер потока : 1,20 Гбайт (82%)
Библиотека кодирования : XviD 1.2.1 (UTC 2008-12-04)

Аудио
Идентификатор : 1
Формат : AC-3
Формат/Информация : Audio Coding 3
Расширение режима : CM (complete main)
Параметр Endianness формата : Big
Идентификатор кодека : 2000
Продолжительность : 1 ч. 36 м.
Вид битрейта : Постоянный
Битрейт : 384 Кбит/сек
Каналы : 6 каналов
Расположение каналов : Front: L C R, Side: L R, LFE
Частота : 48,0 КГц
Метод сжатия : С потерями
Размер потока : 265 Мбайт (18%)
Выравнивание : Разделение по промежуткам
Продолжительность промежутка : 42 мс. (1,00 видеокадр)
Время предзагрузки промежутка : 500 мс.

freetor.icu



Скачать За закатом рассвет через торрент https://pic1.kartinco.top/images/10/au44x.jpg Скачать, смотреть онлайн За закатом рассвет бесплантно в хорошем качестве Описание: Джек — отец-одиночка, воспитывающий троих детей. Вся их семья живет на берегу озера, который в свою очередь граничит с ... 9.4 10 18
Торрент: Зарегистрирован [2016-08-03 10:22] · скачан: 130 раз
Статус: √ проверено
Размер: 1.61 GB
Как cкачать? Как скачать За закатом рассвет через торрент | UTorrent

% Раздел Тема Автор DL S | L
Фильмы 2015 [DVDrip, WEB-DLRip, HDrip] [ 1.61 GB ] За закатом рассвет / Away and Back [2015 WEB-DLRip-AVC] MVO - / Newton5 Скачать
1 | 0

28-11-2019 20:33  

Отключить всю рекламу на сайте

28-07-2015 18:50 За закатом рассвет Скачать торрент  

описание очень мрачное-не знаю как это прокатит за комедию-спасибо-качаюfreetor.icu



29-07-2015 14:44 За закатом рассвет Скачать торрент  

Описание, да. Прямо "Куджо", только вместо собаки взбесившиеся лебеди убийцы.freetor.icu



02-08-2015 12:59 За закатом рассвет Скачать торрент  

Чёй-та я очкую смотреть такие фильмы :dancee:freetor.icu



03-08-2016 14:03 За закатом рассвет Скачать торрент  

Ээээммм.... Лебеди выследили детей и решили напасть на них ночью??? Что простите? freetor.icu



03-08-2016 16:44 За закатом рассвет Скачать торрент  

Жесть ,лебеди ночью спят как я знаю! Что-то у продюсера не туда понесло)freetor.icu



04-08-2016 14:28 За закатом рассвет Скачать торрент  

лебеди убийцы сюжет во freetor.icu



04-08-2016 17:33 За закатом рассвет Скачать торрент  

Безусловно, в этом кино не рассматривается не игра актёров, не сценарий и всё другое по созданию фильма. Ведь это Холлмарк, тут главное другое, человеческое, как и сказочно красивая история.

И пусть данная история по-детски наивна, она растапливает сердца и делает всех людей чуточку добрее.freetor.icu



    Дорогой пользователь! Огромная просьба, поблагодарите релизера, оцените раздачу и оставьте свои комментарий, если Вы скачали За закатом рассвет через торрент бесплатно!
    Комментировать посты могут только пользователи прошедшие не сложную регистрацию
    Показать сообщения:    

    За закатом рассвет через торрент
    Скачать бесплатно За закатом рассвет
    За закатом рассвет скачать торрент
    За закатом рассвет смотреть онлайн
    Cкачать фильм За закатом рассвет бесплатно
    За закатом рассвет скачать торрент в хорошем качестве
    За закатом рассвет смотреть онлайн бесплатно в хорошем качестве


    Вы не можете начинать темы
    Вы не можете отвечать на сообщения
    Вы не можете редактировать свои сообщения
    Вы не можете удалять свои сообщения
    Вы не можете голосовать в опросах
    Вы не можете прикреплять файлы к сообщениям
    Вы можете скачивать файлы