>

5.6

iTunes

6.1

MVO

5.7

MVO

1

7.4

1 сезон

6.8

iTunes

7.2

1 сезон

13

6.7

1 сезон

8.3

RePack

30

Deluxe

pack

9.9

Лицензия

ВАЖНО

ИГРА 18+

pack

7.3

RePack

MK11

7.7

RePack

jed

7.8

RePack

fifa19

8.5

RePack

RDR2

RePack

NEED FOR SPEED™ PAYBACK

4 сезон

9 сезон

Бесстыжие 9 сезон

Все сериалы

все сериалы на PB.wtf

RePack

FAR CRY 5

Anonymous, добрый вечер, мы катастрофически не успеваем собрать деньги на оплату серверов, помогите нам пожалуйста 5,10,15р., для нас важна любая помощь . В качестве благодарности мы отключим Вам всю рекламу на сайте (укажите свой ник в строку Ваше имя)!

×
  
Magnet ссылка

Бэйби / Baby (Нирадж Пандей) [2015 г., Боевик, триллер, криминал, детектив, BDRip 1080p, Любительский многоголосый] freetor.icu

Бэйби через торрент freetor.icu

Размер: 10.13 GB | Добавлен: 6 лет 1 мес. назад | Торрент скачан:26 раз
Смотреть онлайн Бэйби | Скачать    Ребята, помогите собрать деньги на оплату серверов!!!

25-07-2015 12:53 Бэйби Скачать торрент  

Бэйби / Baby
Год выпуска: 2015
Страна: Индия
Жанр: Боевик, триллер, криминал, детектив
Продолжительность: 02:39:42
Перевод: Любительский многоголосый+Индийский
Субтитры: Английские

Режиссер: Нирадж Пандей

В ролях: Акшай Кумар, Дэнни Дензонгпа, Анупам Кхер, Рана Даггубати, Таапси Панну, Кей Кей Менон, Захари Соффин, Рашид Наз, Сушант Сингх

Описание: После событий 26 ноября 2008 года, в Индии после долгих переговоров было принято решение, в течение пяти лет протестировать одну элитную программу, и в зависимости от результатов определить будущий план действий. Поскольку программе определили тестовый режим пять лет, то секретную команду назвали "Бэйби". За первые четыре года "Бэйби" организовала агентурную сеть, провела перехваты и прямо или косвенно предотвратила около 24 взрывов в стране. Также поймала 13 опаснейших террористов и провела 8 боевых операций. Это история о последней миссии "Бэйби".

Качество: BDRip 1080p
Формат: MKV
Видео кодек: AVC
Аудио кодек: AC3
Видео: MPEG-4 AVC, (1920x816),8189 Кбит/с, 23.976 кадра/сек
Аудио#1: AC3, 6 ch,448 kbps (Rus) 48.0 KHz Любительский многоголосый
Аудио#2: AC3, 6 ch,448 kbps (Indi) 48.0 KHz Индийский
скриншот   скриншот   скриншот  

Тип потока: Видео
Длительность: 02:39:42
Кодек: AVC
Кодек/описание: Advanced Video Codec
Кодек/профиль: High@L4.1
Кодек/ID: V_MPEG4/ISO/AVC
Кодек/CABAC: Yes
Кодек/ReFrames: 5 frames
Размеры изображения: 1920 x 816 (2.35:1)
Частота кадров: 24.000 fps
Частота кадров/тип: Constant
Размер потока: 8.93 GiB (88%)
Битрейт: 8 189 Kbps
Библиотека кодирования: x264 core 144 r2525 40bb568
Цветовое пространство: YUV
Тип развёртки: Progressive
Колориметрия: 4:2:0
Глубина: 8 bits
Настройки кодирования: cabac=1 / ref=5 / deblock=1:-1:-1 / analyse=0x3:0x133 / me=umh / subme=9 / psy=1 / psy_rd=1.00:0.15 / mixed_ref=1 / me_range=16 / chroma_me=1 / trellis=2 / 8x8dct=1 / cqm=0 / deadzone=21,11 / fast_pskip=0 / chroma_qp_offset=-3 / threads=12 / lookahead_threads=1 / sliced_threads=0 / nr=1000 / decimate=1 / interlaced=0 / bluray_compat=0 / constrained_intra=0 / bframes=3 / b_pyramid=2 / b_adapt=2 / b_bias=0 / direct=3 / weightb=1 / open_gop=0 / weightp=2 / keyint=250 / keyint_min=24 / scenecut=40 / intra_refresh=0 / rc_lookahead=60 / rc=2pass / mbtree=1 / bitrate=8189 / ratetol=1.0 / qcomp=0.60 / qpmin=0 / qpmax=69 / qpstep=4 / cplxblur=20.0 / qblur=0.5 / ip_ratio=1.40 / aq=1:1.00
:
Тип потока: Звук #1
Язык: Russian
Название: AC-3 5.1
Длительность: 02:39:42.752
Кодек: AC-3
Кодек/описание: Audio Coding 3
Кодек/ID: A_AC3
Частота дискретизации: 48.0 KHz
Каналов: 6 channels
Битрейт: 448 Kbps
Битрейт/тип: Constant
Размер потока: 512 MiB (5%)
Глубина: 16 bits
Метод сжатия: Lossy
:
Тип потока: Звук #2
Язык: Hindi
Название: AC-3 5.1
Длительность: 02:39:42.752
Кодек: AC-3
Кодек/описание: Audio Coding 3
Кодек/ID: A_AC3
Частота дискретизации: 48.0 KHz
Каналов: 6 channels
Битрейт: 448 Kbps
Битрейт/тип: Constant
Размер потока: 512 MiB (5%)
Глубина: 16 bits
Метод сжатия: Lossy
:
Тип потока: Субтитры #1
Язык: English
Формат: UTF-8
Формат/подробно: UTF-8 Plain Text

freetor.icu



Скачать Бэйби через торрент https://pic1.kartinco.top/images/10/luyyb.jpg Скачать, смотреть онлайн Бэйби бесплантно в хорошем качестве Описание: После событий 26 ноября 2008 года, в Индии после долгих переговоров было принято решение, в течение пяти лет протестировать одну ... 6.6 10 9
Info! Золотая раздача, скачанное не засчитывается.
Торрент: Зарегистрирован [2015-07-25 12:53] · скачан: 26 раз
Статус: √ проверено
Размер: 10.13 GB
Как cкачать? Как скачать Бэйби через торрент | UTorrent

% Раздел Тема Автор DL S | L
Индийское кино [ 1.46 GB ] Бэйби / Baby [2015 DVDRip DVO] Ворон Скачать
1 | 0

28-11-2019 20:33  

Отключить всю рекламу на сайте

    Дорогой пользователь! Огромная просьба, поблагодарите релизера, оцените раздачу и оставьте свои комментарий, если Вы скачали Бэйби через торрент бесплатно!
    Комментировать посты могут только пользователи прошедшие не сложную регистрацию
    Показать сообщения:    

    Бэйби через торрент
    Скачать бесплатно Бэйби
    Бэйби скачать торрент
    Бэйби смотреть онлайн
    Cкачать фильм Бэйби бесплатно
    Бэйби скачать торрент в хорошем качестве
    Бэйби смотреть онлайн бесплатно в хорошем качестве


    Вы не можете начинать темы
    Вы не можете отвечать на сообщения
    Вы не можете редактировать свои сообщения
    Вы не можете удалять свои сообщения
    Вы не можете голосовать в опросах
    Вы не можете прикреплять файлы к сообщениям
    Вы можете скачивать файлы