Присоединяйтесь к нам в Telegram!, здесь всегда актуальный адрес сайта, оперативная поддержка и многое другое!!

>

5.9

iTunes

7.4

iTunes

9.4

1 сезон

1

7.4

2 сезон

7.2

iTunes

7.3

1 сезон

13

6.1

iTunes

8.3

GOG

30

ULTIMATE

pack

9.9

Лицензия

ВАЖНО

ИГРА 18+

pack

7.3

RePack

MK11

7.7

RePack

jed

7.8

RePack

fifa19

8.5

RePack

RDR2

RePack

NEED FOR SPEED™ PAYBACK

5 сезон

9 сезон

Бесстыжие 9 сезон

Все сериалы

все сериалы на PB.wtf

RePack

FAR CRY 5

Anonymous, доброй ночи, мы катастрофически не успеваем собрать деньги на оплату серверов, помогите нам пожалуйста 5,10,15р., для нас важна любая помощь . В качестве благодарности мы отключим Вам всю рекламу на сайте (укажите свой ник в строку Ваше имя)!

×
  
Magnet ссылка

Форсаж 7 / Furious Seven (Джеймс Ван) [2015, боевик, триллер, криминал, HDRip, Дубляж] iTunes (Расширенная версия) freetor.icu

Форсаж 7 через торрент freetor.icu

Размер: 2.06 GB | Добавлен: 6 лет 4 мес. назад | Торрент скачан:402 раза
Смотреть онлайн Форсаж 7 | Скачать    Ребята, помогите собрать деньги на оплату серверов!!!

22-07-2015 08:44 Форсаж 7 Скачать торрент  


Форсаж 7 / Furious Seven
««Месть не знает границ»»

ИНФОРМАЦИЯ:
Год выпуска:2015
Страна: США
Жанр: боевик, триллер, криминал
Продолжительность: 02:19:55
Перевод: Дубляж - [Лицензия / iTunes]
Субтитры: Русские (на надписи и прочее) - вшитые
Режиссер: Джеймс Ван

В Ролях:


Вин Дизель (Dominic Toretto), Пол Уокер (Brian O'Conner), Джейсон Стэйтем (Deckard Shaw), Мишель Родригес (Letty), Дуэйн Джонсон (Hobbs), Тайриз Гибсон (Roman), Лудакрис (Tej), Натали Эммануэль (Ramsey), Джордана Брюстер (Mia), Курт Рассел (Mr. Nobody), Тони Джа (Kiet), Джимон Хонсу (Jakande)

Описание:
Они покорили Токио и Рио, Лос-Анджелес и Лондон. Но мир больше не играет по их правилам. Зной арабских пустынь, неприлично высокие небоскребы, миллионы долларов на колесах и очень, очень знаменитый злодей. Скорость не знает границ.

  • Мировая премьера:16 марта 2015

    ТЕХ.ДАННЫЕ:
    Качество: HDRip
    Формат: AVI
    Видео кодек: XviD
    Аудио кодек: AC3
    Видео: XviD, 720x304 (2.35:1), 1628 kbps, 23,976 fps, 0,310 bpp
    Аудио №1: AC3 / 5.1 / 48 kHz / 384 kbps / Russian

    Цитата:

    Примечание: Расширенная версия длинее на 2 минут (гонки и драки), пару фраз без перевода.


    Код:

    General
    Complete name                            : D:\Торенты\40rsaj.7.2015.D.HDRip.2100MB.avi
    Format                                   : AVI
    Format/Info                              : Audio Video Interleave
    File size                                : 2.06 GiB
    Duration                                 : 2h 19mn
    Overall bit rate                         : 2 104 Kbps
    Writing application                      : VirtualDubMod 1.5.10.2 (build 2540/release)
    Writing library                          : VirtualDubMod build 2540/release

    Video
    ID                                       : 0
    Format                                   : MPEG-4 Visual
    Format profile                           : Advanced [email protected]
    Format settings, BVOP                    : 2
    Format settings, QPel                    : No
    Format settings, GMC                     : No warppoints
    Format settings, Matrix                  : Default (MPEG)
    Codec ID                                 : XVID
    Codec ID/Hint                            : XviD
    Duration                                 : 2h 19mn
    Bit rate                                 : 1 628 Kbps
    Width                                    : 720 pixels
    Height                                   : 304 pixels
    Display aspect ratio                     : 2.35:1
    Frame rate                               : 23.976 fps
    Color space                              : YUV
    Chroma subsampling                       : 4:2:0
    Bit depth                                : 8 bits
    Scan type                                : Progressive
    Compression mode                         : Lossy
    Bits/(Pixel*Frame)                       : 0.310
    Stream size                              : 1.59 GiB (77%)
    Writing library                          : XviD 1.2.1 (UTC 2008-12-04)

    Audio
    ID                                       : 1
    Format                                   : AC-3
    Format/Info                              : Audio Coding 3
    Mode extension                           : CM (complete main)
    Codec ID                                 : 2000
    Duration                                 : 2h 19mn
    Bit rate mode                            : Constant
    Bit rate                                 : 384 Kbps
    Channel(s)                               : 6 channels
    Channel positions                        : Front: L C R, Side: L R, LFE
    Sampling rate                            : 48.0 KHz
    Bit depth                                : 16 bits
    Compression mode                         : Lossy
    Stream size                              : 384 MiB (18%)
    Alignment                                : Split accross interleaves

    Скриншоты:


    © Оформление by Ворон
    freetor.icu



  • Скачать Форсаж 7 через торрент https://pic1.kartinco.top/images/61/ordi9.jpg Скачать, смотреть онлайн Форсаж 7 бесплантно в хорошем качестве Описание: Они покорили Токио и Рио, Лос-Анджелес и Лондон. Но мир больше не играет по их правилам. Зной арабских пустынь, неприлично ... 9.9 10 20
    Info! Золотая раздача, скачанное не засчитывается.
    Торрент: Зарегистрирован [2015-07-22 08:44] · скачан: 402 раз
    Статус: √ проверено
    Размер: 2.06 GB
    Как cкачать? Как скачать Форсаж 7 через торрент | UTorrent

    % Раздел Тема Автор DL S | L
    Фильмы [HD 720p, 1080p] (Хороший звук DUB, MVO) [ 5.79 GB ] Форсаж 7 / Furious Seven [2015 BDRip 1080p HEVC ] [Extended Cut] Мичман37 Скачать
    1 | 0
    Ultra HD (UHD: 2K, 4K, 8K) — видео сверхвысокой чёткости [ 68.17 GB ] Форсаж 7 / Furious Seven [2015 UHD BDRemux 2160p] DUB + 4xAVO [Расширенная версия] sheker187 Скачать
    2 | 0
    Фильмы [HD 720p, 1080p] (Хороший звук DUB, MVO) [ 8.37 GB ] Форсаж 7 / Furious Seven [2015 BDRip 720p от _denis_100 / NNNB] DUB 4xAVO _denis_100 Скачать
    1 | 0
    Фильмы (Blu-ray, BD-Remux, HDDVD) [ 25.65 GB ] Форсаж 7 / Furious Seven [Theatrical Cut] [2015 BD Remux 1080p - ] -Lexx- Скачать
    1 | 0
    Фильмы (WEB-DL 720p, 1080p) [ 4.7 GB ] Форсаж 7 / Furious Seven [2015 WEB-DL 1080p Russia] Ворон Скачать
    1 | 0
    Фильмы (HD 720p, 1080p) (48-60 fps) [ 4.71 GB ] Форсаж 7 / Furious Seven [2015 BDRip 720p 60fps от еnvy / NNNB] DUB еnvy Скачать
    1 | 0
    Фильмы 2015 [DVDrip, WEB-DLRip, HDrip] [ 1.46 GB ] Форсаж 7 / Furious Seven [2015 BDRip-AVC] [Расширенная версия] DUB potroks Скачать
    1 | 0

    28-11-2019 20:33  

    Отключить всю рекламу на сайте

      Дорогой пользователь! Огромная просьба, поблагодарите релизера, оцените раздачу и оставьте свои комментарий, если Вы скачали Форсаж 7 через торрент бесплатно!
      Комментировать посты могут только пользователи прошедшие не сложную регистрацию
      Показать сообщения:    

      Форсаж 7 через торрент
      Скачать бесплатно Форсаж 7
      Форсаж 7 скачать торрент
      Форсаж 7 смотреть онлайн
      Cкачать фильм Форсаж 7 бесплатно
      Форсаж 7 скачать торрент в хорошем качестве
      Форсаж 7 смотреть онлайн бесплатно в хорошем качестве


      Вы не можете начинать темы
      Вы не можете отвечать на сообщения
      Вы не можете редактировать свои сообщения
      Вы не можете удалять свои сообщения
      Вы не можете голосовать в опросах
      Вы не можете прикреплять файлы к сообщениям
      Вы можете скачивать файлы