Присоединяйтесь к нам в Telegram!, здесь всегда актуальный адрес сайта, оперативная поддержка и многое другое!!

>

5.9

iTunes

7.4

iTunes

9.4

1 сезон

1

7.4

2 сезон

7.2

iTunes

7.3

1 сезон

13

6.1

iTunes

8.3

GOG

30

ULTIMATE

pack

9.9

Лицензия

ВАЖНО

ИГРА 18+

pack

7.3

RePack

MK11

7.7

RePack

jed

7.8

RePack

fifa19

8.5

RePack

RDR2

RePack

NEED FOR SPEED™ PAYBACK

5 сезон

9 сезон

Бесстыжие 9 сезон

Все сериалы

все сериалы на PB.wtf

RePack

FAR CRY 5

Anonymous, доброй ночи, мы катастрофически не успеваем собрать деньги на оплату серверов, помогите нам пожалуйста 5,10,15р., для нас важна любая помощь . В качестве благодарности мы отключим Вам всю рекламу на сайте (укажите свой ник в строку Ваше имя)!

×
  
Magnet ссылка

Шафер напрокат (Джереми Гарелик / Jeremy Garelick) [2015, Комедия, BDRip-AVC от potroks] DUB Лицензия freetor.icu

Шафер напрокат через торрент freetor.icu

Размер: 2.23 GB | Добавлен: 6 лет 4 мес. назад | Торрент скачан:262 раза
Смотреть онлайн Шафер напрокат | Скачать    Ребята, помогите собрать деньги на оплату серверов!!!

15-07-2015 20:05 Шафер напрокат Скачать торрент  

Шафер напрокат / The Wedding Ringer
«Doug needs a best man, in the worst way. Jimmy is the best friend money can buy. But sometimes when you buy a friend, there's a price to be paid...»
Год выпуска: 2015
Страна: США / Screen Gems, Miramax Films...
Жанр: Комедия
Продолжительность: 01:45:00
Перевод: Дубляж [BD CEE]
Субтитры: русские (Forced), русские (iTunes), английские (Full), английские (SDH), английские (SDH-Colored),
Режиссер: Джереми Гарелик / Jeremy Garelick
В ролях:

Кевин Харт (Jimmy Callahan / Bic), Джош Гад (Doug Harris), Кейли Куоко-Суитинг (Gretchen Palmer), Эффион Крокетт (Reggie / Drysdale), Хорхе Гарсиа (Garvey), Дэн Гилл (Bronstein / Dickerson), Кори Холкомб (Otis / Alzado), Кен Ховард (Ed Palmer), Колин Кэйн (Fitzgibbons / Plunkett), Клорис Личмен (Grandma Palmer), Дженифер Льюис (Doris Jenkins), Алан Ричсон (Kip / Carew)
Описание: Главный герой женится на девушке своей мечты. Он купил кольца и смокинг, оплатил шикарный ресторан, но для идеальной церемонии не хватает маленькой детали - друзей жениха. Эту «услугу» он находит в специальном агентстве, где напрокат получает целый комплект «друзей»... Пройдет ли теперь подготовка и сама свадьба идеально?

Качество: BDRip-AVC
Формат: MKV
Видео кодек: AVC
Аудио кодек: AC3
Видео: AVC, 1152x480 (2.40:1), 2143 kbps, 23,976 fps, 0,162 bpp
Аудио №1: русский / AC3 / 5.1 / 48 kHz / 448 kbps / 16 bit
Аудио №2: английский / AC3 / 5.1 / 48 kHz / 384 kbps / 16 bit
Навигация по главам: есть
Релиз группы:
Автор рипа: potroks

Код:

Общее
Уникальный идентификатор : 188547704269293682994651789378837737377 (0x8DD8F78AACED75C2AADDDBF6AF86EFA1)
Полное имя : Shafer.na.Prokat.2015.DUAL.BDRip.x264.-HELLYWOOD.mkv
Формат : Matroska
Версия формата : Version 4 / Version 2
Размер файла : 2,23 Гбайт
Продолжительность : 1 ч. 45 м.
Общий поток : 3036 Кбит/сек
Название фильма : The Wedding Ringer (2015)
Дата кодирования : UTC 2015-07-15 18:32:27
Программа кодирования : mkvmerge v5.9.0 ('On The Loose') built on Dec 15 2012 16:39:58
Библиотека кодирования : libebml v1.3.0 + libmatroska v1.4.0

Видео
Идентификатор : 1
Формат : AVC
Формат/Информация : Advanced Video Codec
Профиль формата : [email protected]
Параметр CABAC формата : Да
Параметр ReFrames формата : 10 кадров
Идентификатор кодека : V_MPEG4/ISO/AVC
Продолжительность : 1 ч. 45 м.
Битрейт : 2144 Кбит/сек
Номинальный битрейт : 2308 Кбит/сек
Ширина : 1152 пикселя
Высота : 480 пикселей
Соотношение сторон : 2,40:1
Режим частоты кадров : Постоянный
Частота кадров : 23,976 кадра/сек
Цветовое пространство : YUV
Субдискретизация насыщенности : 4:2:0
Битовая глубина : 8 бит
Тип развёртки : Прогрессивная
Бит/(Пиксели*Кадры) : 0.162
Размер потока : 1,57 Гбайт (71%)
Заголовок : potroks
Библиотека кодирования : x264 core 146 r2538 121396c
Настройки программы : cabac=1 / ref=10 / deblock=1:-2:-2 / analyse=0x3:0x113 / me=umh / subme=11 / psy=1 / psy_rd=1.04:0.10 / mixed_ref=1 / me_range=48 / chroma_me=1 / trellis=2 / 8x8dct=1 / cqm=0 / deadzone=21,11 / fast_pskip=0 / chroma_qp_offset=-3 / threads=9 / lookahead_threads=2 / sliced_threads=0 / nr=0 / decimate=1 / interlaced=0 / bluray_compat=0 / constrained_intra=0 / bframes=11 / b_pyramid=2 / b_adapt=2 / b_bias=0 / direct=3 / weightb=1 / open_gop=0 / weightp=2 / keyint=250 / keyint_min=23 / scenecut=40 / intra_refresh=0 / rc_lookahead=60 / rc=2pass / mbtree=0 / bitrate=2308 / ratetol=1.0 / qcomp=0.70 / qpmin=0 / qpmax=69 / qpstep=4 / cplxblur=20.0 / qblur=0.5 / vbv_maxrate=14000 / vbv_bufsize=14000 / nal_hrd=none / filler=0 / ip_ratio=1.35 / pb_ratio=1.25 / aq=1:0.80
Язык : English
Default : Да
Forced : Нет

Аудио #1
Идентификатор : 2
Формат : AC-3
Формат/Информация : Audio Coding 3
Расширение режима : CM (complete main)
Параметр Endianness формата : Big
Идентификатор кодека : A_AC3
Продолжительность : 1 ч. 45 м.
Вид битрейта : Постоянный
Битрейт : 448 Кбит/сек
Каналы : 6 каналов
Расположение каналов : Front: L C R, Side: L R, LFE
Частота : 48,0 КГц
Метод сжатия : С потерями
Размер потока : 336 Мбайт (15%)
Заголовок : Dub | DD 5.1 @ 448 kbps - Blu-Ray CEE
Язык : Russian
Default : Да
Forced : Нет

Аудио #2
Идентификатор : 3
Формат : AC-3
Формат/Информация : Audio Coding 3
Расширение режима : CM (complete main)
Параметр Endianness формата : Big
Идентификатор кодека : A_AC3
Продолжительность : 1 ч. 45 м.
Вид битрейта : Постоянный
Битрейт : 384 Кбит/сек
Каналы : 6 каналов
Расположение каналов : Front: L C R, Side: L R, LFE
Частота : 48,0 КГц
Метод сжатия : С потерями
Размер потока : 288 Мбайт (13%)
Заголовок : Original | DD 5.1 @ 448 kbps
Язык : English
Default : Нет
Forced : Нет

Текст #1
Идентификатор : 4
Формат : UTF-8
Идентификатор кодека : S_TEXT/UTF8
Идентификатор кодека/Информация : UTF-8 Plain Text
Заголовок : Forced
Язык : Russian
Default : Да
Forced : Нет

Текст #2
Идентификатор : 5
Формат : UTF-8
Идентификатор кодека : S_TEXT/UTF8
Идентификатор кодека/Информация : UTF-8 Plain Text
Заголовок : iTunes
Язык : Russian
Default : Нет
Forced : Нет

Текст #3
Идентификатор : 6
Формат : UTF-8
Идентификатор кодека : S_TEXT/UTF8
Идентификатор кодека/Информация : UTF-8 Plain Text
Заголовок : Full
Язык : English
Default : Нет
Forced : Нет

Текст #4
Идентификатор : 7
Формат : UTF-8
Идентификатор кодека : S_TEXT/UTF8
Идентификатор кодека/Информация : UTF-8 Plain Text
Заголовок : SDH
Язык : English
Default : Нет
Forced : Нет

Текст #5
Идентификатор : 8
Формат : UTF-8
Идентификатор кодека : S_TEXT/UTF8
Идентификатор кодека/Информация : UTF-8 Plain Text
Заголовок : SDH-Colored
Язык : English
Default : Нет
Forced : Нет

Меню
00:00:00.000 : en:00:00:00.000
00:08:14.077 : en:00:08:14.077
00:13:08.538 : en:00:13:08.538
00:19:36.675 : en:00:19:36.675
00:23:17.479 : en:00:23:17.479
00:27:22.558 : en:00:27:22.558
00:33:22.417 : en:00:33:22.417
00:40:42.023 : en:00:40:42.023
00:47:49.950 : en:00:47:49.950
00:53:47.641 : en:00:53:47.641
01:01:40.906 : en:01:01:40.906
01:07:18.868 : en:01:07:18.868
01:12:35.268 : en:01:12:35.268
01:19:47.908 : en:01:19:47.908
01:27:12.978 : en:01:27:12.978
01:35:08.202 : en:01:35:08.202

freetor.icu



Скачать Шафер напрокат через торрент https://pic.kartinco.top/images/11/n4e8d.jpg Скачать, смотреть онлайн Шафер напрокат бесплантно в хорошем качестве Описание: Главный герой женится на девушке своей мечты. Он купил кольца и смокинг, оплатил шикарный ресторан, но для идеальной церемонии ... 10 10 4
Info! Золотая раздача, скачанное не засчитывается.
Торрент: Зарегистрирован [2015-07-15 20:05] · скачан: 262 раз
Статус: √ проверено
Размер: 2.23 GB
Как cкачать? Как скачать Шафер напрокат через торрент | UTorrent

% Раздел Тема Автор DL S | L
Фильмы [HD 720p, 1080p] (Хороший звук DUB, MVO) [ 4.71 GB ] Шафер напрокат [2015 BDRip 720p] DUB potroks Скачать
1 | 0
Фильмы 2015 [DVDrip, WEB-DLRip, HDrip] [ 1.46 GB ] Шафер напрокат [2015 BDRip] DUB Twi7ter Скачать
1 | 0
Фильмы 2015 [DVDrip, WEB-DLRip, HDrip] [ 1.46 GB ] Шафер напрокат [2015 BDRip-AVC] DUB potroks Скачать
1 | 0

28-11-2019 20:33  

Отключить всю рекламу на сайте

    Дорогой пользователь! Огромная просьба, поблагодарите релизера, оцените раздачу и оставьте свои комментарий, если Вы скачали Шафер напрокат через торрент бесплатно!
    Комментировать посты могут только пользователи прошедшие не сложную регистрацию
    Показать сообщения:    

    Шафер напрокат через торрент
    Скачать бесплатно Шафер напрокат
    Шафер напрокат скачать торрент
    Шафер напрокат смотреть онлайн
    Cкачать фильм Шафер напрокат бесплатно
    Шафер напрокат скачать торрент в хорошем качестве
    Шафер напрокат смотреть онлайн бесплатно в хорошем качестве


    Вы не можете начинать темы
    Вы не можете отвечать на сообщения
    Вы не можете редактировать свои сообщения
    Вы не можете удалять свои сообщения
    Вы не можете голосовать в опросах
    Вы не можете прикреплять файлы к сообщениям
    Вы можете скачивать файлы