>

5.6

iTunes

6.1

MVO

5.7

MVO

1

7.4

1 сезон

6.8

iTunes

7.2

1 сезон

13

6.7

1 сезон

8.3

RePack

30

Deluxe

pack

9.9

Лицензия

ВАЖНО

ИГРА 18+

pack

7.3

RePack

MK11

7.7

RePack

jed

7.8

RePack

fifa19

8.5

RePack

RDR2

RePack

NEED FOR SPEED™ PAYBACK

4 сезон

9 сезон

Бесстыжие 9 сезон

Все сериалы

все сериалы на PB.wtf

RePack

FAR CRY 5

Anonymous, доброй ночи, мы катастрофически не успеваем собрать деньги на оплату серверов, помогите нам пожалуйста 5,10,15р., для нас важна любая помощь . В качестве благодарности мы отключим Вам всю рекламу на сайте (укажите свой ник в строку Ваше имя)!

×
  
Magnet ссылка

Безмолвие / Nirbaak (Srijit Mukherji) [2014, фэнтези, мелодрама, музыка, WEB-DL 720p, Любительский (двухголосый) [den904, DeadSno] freetor.icu

Безмолвие через торрент freetor.icu

Размер: 2.35 GB | Добавлен: 6 лет 2 мес. назад | Торрент скачан:13 раз
Смотреть онлайн Безмолвие | Скачать    Ребята, помогите собрать деньги на оплату серверов!!!

15-07-2015 08:07 Безмолвие Скачать торрент  


Безмолвие / Nirbaak


ИНФОРМАЦИЯ:
Год выпуска:2014
Страна: Индия
Жанр: фэнтези, мелодрама, музыка
Продолжительность: 01:48:02
Перевод: Любительский (двухголосый) [den904, DeadSno]
Режиссер: Srijit Mukherji

В Ролях:


Анджан Датт (Samson Gomes), Джишу Сенгупта (Rahul), Ritwick Chakraborty (Mrityunjoy Karmakar), Сушмита Сен (Woman), Bishwajit Chakraborty (Neighbour of Samson)

Описание:
Безмолвие - это повествование, состоящее из четырёх историй любви, искусно сплетенных вокруг одной женщины. Каждая из них включает в себя лишь одну сущность - безмолвие, у которого может быть как и счастливый, так и трагичный конец.


ТЕХ.ДАННЫЕ:
Качество: WEB-DL 720p
Формат: MKV
Видео кодек: AVC
Аудио кодек: AC3
Видео: AVC, 1280x544 (2.35:1), 2861 kbps, 24 fps, 0,171 bpp
Аудио: AC3 / 2.0 / 48 kHz / 192 kbps / 16 bit


Код:

General
Unique ID                                : 194817516097021476750550737260354808968 (0x92907D219E898DF18D0402A2457D2C88)
Complete name                            : D:\Торенты\Безмолвие.2014.mkv
Format                                   : Matroska
Format version                           : Version 4 / Version 2
File size                                : 2.35 GiB
Duration                                 : 1h 48mn
Overall bit rate mode                    : Variable
Overall bit rate                         : 3 115 Kbps
Encoded date                             : UTC 2015-07-15 03:19:23
Writing application                      : mkvmerge v7.2.0 ('On Every Street') 64bit built on Sep 13 2014 15:52:10
Writing library                          : libebml v1.3.0 + libmatroska v1.4.1

Video
ID                                       : 1
Format                                   : AVC
Format/Info                              : Advanced Video Codec
Format profile                           : High@L4.1
Format settings, CABAC                   : Yes
Format settings, ReFrames                : 3 frames
Codec ID                                 : V_MPEG4/ISO/AVC
Duration                                 : 1h 48mn
Bit rate mode                            : Variable
Bit rate                                 : 2 861 Kbps
Maximum bit rate                         : 40.0 Mbps
Width                                    : 1 280 pixels
Height                                   : 544 pixels
Display aspect ratio                     : 2.35:1
Frame rate                               : 24.000 fps
Color space                              : YUV
Chroma subsampling                       : 4:2:0
Bit depth                                : 8 bits
Scan type                                : Progressive
Bits/(Pixel*Frame)                       : 0.171
Stream size                              : 2.16 GiB (92%)
Default                                  : Yes
Forced                                   : No
Color primaries                          : BT.709-5, BT.1361, IEC 61966-2-4, SMPTE RP177
Transfer characteristics                 : BT.470-6 System M, NTSC, FTC 73.682, BT.1700 625 PAL, BT.1700 625 SECAM
Matrix coefficients                      : BT.709-5, BT.1361, IEC 61966-2-4 709, SMPTE RP177

Audio
ID                                       : 2
Format                                   : AC-3
Format/Info                              : Audio Coding 3
Mode extension                           : CM (complete main)
Codec ID                                 : A_AC3
Duration                                 : 1h 48mn
Bit rate mode                            : Constant
Bit rate                                 : 192 Kbps
Channel(s)                               : 2 channels
Channel positions                        : Front: L R
Sampling rate                            : 48.0 KHz
Bit depth                                : 16 bits
Compression mode                         : Lossy
Stream size                              : 148 MiB (6%)
Default                                  : Yes
Forced                                   : No

Text
ID                                       : 3
Format                                   : UTF-8
Codec ID                                 : S_TEXT/UTF8
Codec ID/Info                            : UTF-8 Plain Text
Default                                  : Yes
Forced                                   : No

Скриншоты:


© Оформление by Ворон
freetor.icu



Скачать Безмолвие через торрент https://pic1.kartinco.top/images/61/ordi9.jpg Скачать, смотреть онлайн Безмолвие бесплантно в хорошем качестве Описание: Безмолвие - это повествование, состоящее из четырёх историй любви, искусно сплетенных вокруг одной женщины. Каждая из них ... 10 10 3
Торрент: Зарегистрирован [2015-07-15 08:07] · скачан: 13 раз
Статус: √ проверено
Размер: 2.35 GB
Как cкачать? Как скачать Безмолвие через торрент | UTorrent

% Раздел Тема Автор DL S | L
Индийское кино [ 1.32 GB ] Безмолвие / Nirbaak [2014 музыка DVDRip Любительский [den904 DeadSno] Ворон Скачать
1 | 0

28-11-2019 20:33  

Отключить всю рекламу на сайте

    Дорогой пользователь! Огромная просьба, поблагодарите релизера, оцените раздачу и оставьте свои комментарий, если Вы скачали Безмолвие через торрент бесплатно!
    Комментировать посты могут только пользователи прошедшие не сложную регистрацию
    Показать сообщения:    

    Безмолвие через торрент
    Скачать бесплатно Безмолвие
    Безмолвие скачать торрент
    Безмолвие смотреть онлайн
    Cкачать фильм Безмолвие бесплатно
    Безмолвие скачать торрент в хорошем качестве
    Безмолвие смотреть онлайн бесплатно в хорошем качестве


    Вы не можете начинать темы
    Вы не можете отвечать на сообщения
    Вы не можете редактировать свои сообщения
    Вы не можете удалять свои сообщения
    Вы не можете голосовать в опросах
    Вы не можете прикреплять файлы к сообщениям
    Вы можете скачивать файлы