>

5.6

iTunes

6.1

MVO

5.7

MVO

1

7.4

1 сезон

6.8

iTunes

7.2

1 сезон

13

6.7

1 сезон

8.3

RePack

30

Deluxe

pack

9.9

Лицензия

ВАЖНО

ИГРА 18+

pack

7.3

RePack

MK11

7.7

RePack

jed

7.8

RePack

fifa19

8.5

RePack

RDR2

RePack

NEED FOR SPEED™ PAYBACK

4 сезон

9 сезон

Бесстыжие 9 сезон

Все сериалы

все сериалы на PB.wtf

RePack

FAR CRY 5

Anonymous, добрый день, мы катастрофически не успеваем собрать деньги на оплату серверов, помогите нам пожалуйста 5,10,15р., для нас важна любая помощь . В качестве благодарности мы отключим Вам всю рекламу на сайте (укажите свой ник в строку Ваше имя)!

×
  
Magnet ссылка

Безмолвие / Nirbaak (Srijit Mukherji) [2014, фэнтези, мелодрама, музыка, DVDRip, Любительский (двухголосый) [den904, DeadSno] freetor.icu

Безмолвие через торрент freetor.icu

Размер: 1.32 GB | Добавлен: 6 лет 2 мес. назад | Торрент скачан:11 раз
Смотреть онлайн Безмолвие | Скачать    Ребята, помогите собрать деньги на оплату серверов!!!

15-07-2015 07:53 Безмолвие Скачать торрент  


Безмолвие / Nirbaak


ИНФОРМАЦИЯ:
Год выпуска:2014
Страна: Индия
Жанр: фэнтези, мелодрама, музыка
Продолжительность: 01:48:02
Перевод: Любительский (двухголосый) [den904, DeadSno]
Режиссер: Srijit Mukherji

В Ролях:


Анджан Датт (Samson Gomes), Джишу Сенгупта (Rahul), Ritwick Chakraborty (Mrityunjoy Karmakar), Сушмита Сен (Woman), Bishwajit Chakraborty (Neighbour of Samson)

Описание:
Безмолвие - это повествование, состоящее из четырёх историй любви, искусно сплетенных вокруг одной женщины. Каждая из них включает в себя лишь одну сущность - безмолвие, у которого может быть как и счастливый, так и трагичный конец.


ТЕХ.ДАННЫЕ:
Качество: DVDRip
Формат: AVI
Видео кодек: XviD
Аудио кодек: AC3
Видео: XviD, 720x304 (2.35:1), 1479 kbps, 24 fps, 0,282 bpp
Аудио: AC3 / 2.0 / 48 kHz / 192 kbps / 16 bit


Код:

General
Complete name                            : D:\Торенты\Nirbaak.2014.Kolobok.HoneyHaseena\Nirbaak.2014.Kolobok.HoneyHaseena.avi
Format                                   : AVI
Format/Info                              : Audio Video Interleave
File size                                : 1.32 GiB
Duration                                 : 1h 48mn
Overall bit rate                         : 1 749 Kbps
Writing library                          : VirtualDub build 35576/release

Video
ID                                       : 0
Format                                   : MPEG-4 Visual
Format profile                           : Advanced Simple@L5
Format settings, BVOP                    : 3
Format settings, QPel                    : No
Format settings, GMC                     : No warppoints
Format settings, Matrix                  : Default (MPEG)
Codec ID                                 : XVID
Codec ID/Hint                            : XviD
Duration                                 : 1h 48mn
Bit rate                                 : 1 479 Kbps
Width                                    : 720 pixels
Height                                   : 304 pixels
Display aspect ratio                     : 2.35:1
Frame rate                               : 24.000 fps
Color space                              : YUV
Chroma subsampling                       : 4:2:0
Bit depth                                : 8 bits
Scan type                                : Progressive
Compression mode                         : Lossy
Bits/(Pixel*Frame)                       : 0.282
Stream size                              : 1.12 GiB (85%)
Writing library                          : XviD 1.2.1 (UTC 2008-12-04)

Audio
ID                                       : 1
Format                                   : AC-3
Format/Info                              : Audio Coding 3
Mode extension                           : CM (complete main)
Codec ID                                 : 2000
Duration                                 : 1h 48mn
Bit rate mode                            : Constant
Bit rate                                 : 192 Kbps
Channel(s)                               : 2 channels
Channel positions                        : Front: L R
Sampling rate                            : 48.0 KHz
Bit depth                                : 16 bits
Compression mode                         : Lossy
Stream size                              : 148 MiB (11%)
Alignment                                : Aligned on interleaves

Скриншоты:


© Оформление by Ворон
freetor.icu



Скачать Безмолвие через торрент https://pic1.kartinco.top/images/61/ordi9.jpg Скачать, смотреть онлайн Безмолвие бесплантно в хорошем качестве Описание: Безмолвие - это повествование, состоящее из четырёх историй любви, искусно сплетенных вокруг одной женщины. Каждая из них ... 10 10 2
Торрент: Зарегистрирован [2015-07-15 07:53] · скачан: 11 раз
Статус: √ проверено
Размер: 1.32 GB
Как cкачать? Как скачать Безмолвие через торрент | UTorrent

% Раздел Тема Автор DL S | L
Индийское кино [ 2.35 GB ] Безмолвие / Nirbaak [2014 музыка WEB-DL 720p Любительский [den904 DeadSno] Ворон Скачать
1 | 0

28-11-2019 20:33  

Отключить всю рекламу на сайте

    Дорогой пользователь! Огромная просьба, поблагодарите релизера, оцените раздачу и оставьте свои комментарий, если Вы скачали Безмолвие через торрент бесплатно!
    Комментировать посты могут только пользователи прошедшие не сложную регистрацию
    Показать сообщения:    

    Безмолвие через торрент
    Скачать бесплатно Безмолвие
    Безмолвие скачать торрент
    Безмолвие смотреть онлайн
    Cкачать фильм Безмолвие бесплатно
    Безмолвие скачать торрент в хорошем качестве
    Безмолвие смотреть онлайн бесплатно в хорошем качестве


    Вы не можете начинать темы
    Вы не можете отвечать на сообщения
    Вы не можете редактировать свои сообщения
    Вы не можете удалять свои сообщения
    Вы не можете голосовать в опросах
    Вы не можете прикреплять файлы к сообщениям
    Вы можете скачивать файлы