>

8.4

Хороший звук

6.1

MVO

6.4

Line & MVO

1

7.4

1 сезон

6.8

iTunes

7.2

1 сезон

13

6.7

1 сезон

8.3

RePack

30

Deluxe

pack

9.9

Лицензия

ВАЖНО

ИГРА 18+

pack

7.3

RePack

MK11

7.7

RePack

jed

7.8

RePack

fifa19

8.5

RePack

RDR2

RePack

NEED FOR SPEED™ PAYBACK

4 сезон

9 сезон

Бесстыжие 9 сезон

Все сериалы

все сериалы на PB.wtf

RePack

FAR CRY 5

Anonymous, доброе утро, мы катастрофически не успеваем собрать деньги на оплату серверов, помогите нам пожалуйста 5,10,15р., для нас важна любая помощь . В качестве благодарности мы отключим Вам всю рекламу на сайте (укажите свой ник в строку Ваше имя)!

×
  
Magnet ссылка

Гонка / Rush (Шамин Десаи) [2012, триллер, WEB-DLRip, Любительский (двухголосый) [den904, DeadSno] freetor.icu

Гонка через торрент freetor.icu

Размер: 1.28 GB | Добавлен: 6 лет 2 мес. назад | Торрент скачан:19 раз
Смотреть онлайн Гонка | Скачать    Ребята, помогите собрать деньги на оплату серверов!!!

14-07-2015 11:01 Гонка Скачать торрент  


Гонка / Rush
««If you stop... you die!»»

ИНФОРМАЦИЯ:
Год выпуска:2012
Страна: Индия
Жанр: триллер
Продолжительность: 02:03
Перевод: Любительский (двухголосый) [den904, DeadSno]
Субтитры: Русские (на песни)
Режиссер: Шамин Десаи

В Ролях:


Эмран Хашми (Samar Grover), Адитья Панчоли (Roger Khanna), Сагарика Гхатге (Ahaana Sharma), Неха Дхупия (Liza Kapoor), Мурли Шарма, Рахул Сингх (Cujo), Ашок Бантхия (Raja Choudhary), Дженна Клауд, Приянка Гхош (TV Journalist), Latesh Sharma (Hindu college student, who got killed)

Описание:
История вращается вокруг репортёра криминальной хроники Самара Гровера. Из-за его чрезмерной любви к правде, рейтинг телеканала значительно падает, что заставляет раздражённое начальство телеканала просто напросто показать ему на дверь. Самар уже было принялся заливать горе виски, как неожиданный звонок с предложением работы на высокооплачиваемую должность даёт ему новую надежду. Работа заключается в самом простом: приезжать на место преступления самым первым и вести репортаж честно, без какого-либо вранья и приукрас. Под внешним лоском гламура, денег, власти и завидной жизни СМИ, кроется совсем иная истина, которая может ввергнуть в шок. Хозяин телеканала «Преступления 24» Роджер Кханна погружает Самара в водоворот насилия, где, чтобы выжить, нужно сыграть в опасную игру в кошки-мышки…

  • Мировая премьера:25 октября 2012

    ТЕХ.ДАННЫЕ:
    Качество: WEB-DLRip
    Формат: AVI
    Видео кодек: XviD
    Аудио кодек: MP3
    Видео: XviD, 720x408 (16:9), 1453 kbps, 24 fps, 0,054 bpp
    Аудио: MP3 / 2.0 / 48 kHz / 192 kbps /


    Код:

    General
    Complete name                            : D:\Торенты\Gonka.2012.Kolobok.HoneyHaseena\Gonka.2012.Kolobok.HoneyHaseena.avi
    Format                                   : AVI
    Format/Info                              : Audio Video Interleave
    File size                                : 1.28 GiB
    Duration                                 : 02:03
    Overall bit rate                         : 607 Kbps
    Writing application                      : XviD4PSP 7.0 / 55.33.100
    Comment                                  : MATROSKA,WEBM > AVI DVD Player 720x / H264 > XVID VBR 1500kbps HQ / AC3 > MP3 CBR 192kbps HQ

    Video
    ID                                       : 0
    Format                                   : MPEG-4 Visual
    Format profile                           : Advanced Simple@L5
    Format settings, BVOP                    : 1
    Format settings, QPel                    : No
    Format settings, GMC                     : No warppoints
    Format settings, Matrix                  : Default (H.263)
    Codec ID                                 : XVID
    Codec ID/Hint                            : XviD
    Duration                                 : 5h 3mn
    Bit rate                                 : 1453 Kbps
    Width                                    : 720 pixels
    Height                                   : 408 pixels
    Display aspect ratio                     : 16:9
    Frame rate                               : 24.000 fps
    Color space                              : YUV
    Chroma subsampling                       : 4:2:0
    Bit depth                                : 8 bits
    Scan type                                : Progressive
    Compression mode                         : Lossy
    Bits/(Pixel*Frame)                       : 0.054
    Stream size                              : 828 MiB (63%)
    Writing library                          : XviD 64

    Audio
    ID                                       : 1
    Format                                   : MPEG Audio
    Format version                           : Version 1
    Format profile                           : Layer 3
    Mode                                     : Joint stereo
    Mode extension                           : MS Stereo
    Codec ID                                 : 55
    Codec ID/Hint                            : MP3
    Duration                                 : 5h 3mn
    Bit rate mode                            : Constant
    Bit rate                                 : 192 Kbps
    Channel(s)                               : 2 channels
    Sampling rate                            : 48.0 KHz
    Compression mode                         : Lossy
    Stream size                              : 416 MiB (32%)
    Alignment                                : Aligned on interleaves
    Writing library                          : LAME3.99.4ЄЄЄЄЄ‹SDGB

    Скриншоты:


    © Оформление by Ворон
    freetor.icu



  • Скачать Гонка через торрент https://pic1.kartinco.top/images/61/ordi9.jpg Скачать, смотреть онлайн Гонка бесплантно в хорошем качестве Описание: История вращается вокруг репортёра криминальной хроники Самара Гровера. Из-за его чрезмерной любви к правде, рейтинг телеканала ... 9.3 10 4
    Торрент: Зарегистрирован [2015-07-14 11:01] · скачан: 19 раз
    Статус: √ проверено
    Размер: 1.28 GB
    Как cкачать? Как скачать Гонка через торрент | UTorrent

    % Раздел Тема Автор DL S | L
    Автоспорт [ 8.92 GB ] Авто. NASCAR Cup Series 2020. Этап 29. Bass Pro Shops NRA Night Race . Гонка [19.09.2020] [Владимир Башмаков и Алексей Попов 2020 Авто HDTV ] Бумер Скачать
    1 | 0
    TNT serials [ 482 MB ] Наша Russia - Александр Родионович Бородач [2011 Юмористическое шоу SATRip Пиратка] Alex010484 Скачать
    1 | 0
    T Фильмы (мультфильмы) cо спонсором показа (Новинки AVI/MKV) [ 1.36 GB ] Большая гонка на Аляске / The Great Alaskan Race [2019 WEB-DLRip] MVO ["Синема УС"] bober100 Скачать
    1 | 0
    T Фильмы (мультфильмы) cо спонсором показа (Новинки AVI/MKV) [ 3.54 GB ] Большая гонка на Аляске / The Great Alaskan Race [2019 WEB-DL 720p] MVO ["Синема УС"] bober100 Скачать
    1 | 0
    Космос [ 713 MB ] Космическая гонка 21 века / The 21st Century Race for Space [2017 Документальный HDTVRip] Пиратбит Скачать
    1 | 0
    Фильмы 2018 [DVDrip, WEB-DLRip, HDrip] (DUB, MVO) [ 1.46 GB ] Смертельная гонка 4: Вне анархии / Death Race 4: Beyond Anarchy [2018 BDRip] - [] Twi7ter Скачать
    1 | 0
    Фильмы [HD 720p, 1080p] (Хороший звук DUB, MVO) [ 4.33 GB ] Смертельная гонка 4: Вне анархии / Death Race 4: Beyond Anarchy [2018 BDRip-HEVC 1080p ] DUB [] bober100 Скачать
    1 | 0

    28-11-2019 20:33  

    Отключить всю рекламу на сайте

      Дорогой пользователь! Огромная просьба, поблагодарите релизера, оцените раздачу и оставьте свои комментарий, если Вы скачали Гонка через торрент бесплатно!
      Комментировать посты могут только пользователи прошедшие не сложную регистрацию
      Показать сообщения:    

      Гонка через торрент
      Скачать бесплатно Гонка
      Гонка скачать торрент
      Гонка смотреть онлайн
      Cкачать фильм Гонка бесплатно
      Гонка скачать торрент в хорошем качестве
      Гонка смотреть онлайн бесплатно в хорошем качестве


      Вы не можете начинать темы
      Вы не можете отвечать на сообщения
      Вы не можете редактировать свои сообщения
      Вы не можете удалять свои сообщения
      Вы не можете голосовать в опросах
      Вы не можете прикреплять файлы к сообщениям
      Вы можете скачивать файлы