Присоединяйтесь к нам в Telegram!, здесь всегда актуальный адрес сайта, оперативная поддержка и многое другое!!

>

5.9

iTunes

7.4

iTunes

9.4

1 сезон

1

7.4

2 сезон

7.2

iTunes

7.3

1 сезон

13

6.1

iTunes

8.3

Пиратка

30

ULTIMATE

pack

9.9

Лицензия

ВАЖНО

ИГРА 18+

pack

7.3

RePack

MK11

7.7

RePack

jed

7.8

RePack

fifa19

8.5

RePack

RDR2

RePack

NEED FOR SPEED™ PAYBACK

5 сезон

9 сезон

Бесстыжие 9 сезон

Все сериалы

все сериалы на PB.wtf

RePack

FAR CRY 5

Anonymous, доброй ночи, мы катастрофически не успеваем собрать деньги на оплату серверов, помогите нам пожалуйста 5,10,15р., для нас важна любая помощь . В качестве благодарности мы отключим Вам всю рекламу на сайте (укажите свой ник в строку Ваше имя)!

×
  
Magnet ссылка

Институт Аттикус / The Atticus Institute (Крис Спарлинг / Chris Sparling) [2015, США, ужасы, триллер, драма, BDRip от ALGORITM / Лицензия] freetor.icu

Институт Аттикус через торрент freetor.icu

Размер: 748 MB | Добавлен: 6 лет 4 мес. назад | Торрент скачан:385 раз
Смотреть онлайн Институт Аттикус | Скачать    Ребята, помогите собрать деньги на оплату серверов!!!

14-07-2015 09:40 Институт Аттикус Скачать торрент  

Информация о фильме

Название: Институт Аттикус

Оригинальное название: The Atticus Institute

Год выхода: 2015

Жанр: ужасы
Страна: США

Студия: A Safran Company

Продолжительность: 01:22:48

Перевод: Дублированный [Лицензия]
Режиссер: Крис Спарлинг

В ролях: Джулиан Акоста, Энн Бетанкур, Карлос Е. Кампос, Джейк Карпентер, Хит Сентаццо, Брайан Ченоуэт, Ханна Коули, Аарон Крэвен, Динарте де Фрейтас, Лэндалл Гулсби

Описание:

Генри Уэст основал институт Аттикус, который занимается исследованием людей с паранормальными способностями — телекинез, телепатия и т. п. За всю его деятельность Уэст видел много разных случаев, но с появлением женщины Джудит Уинстед, всё что он видел ранее стало малозначительным. Сотрудники института были поражены ее сверх способностями, что привлекло внимание военных США, и дальнейшие исследования проводились под контролем армии. Все дальнейшие исследования Джудит дали понять докторам, что ее способности это происки дьявола и потусторонних сил, которые находились внутри женщины. Военные решают использовать Джудит в качестве оружия. Но вскоре они понимают, что не со всякой властью они могут справиться.



Релиз:

Качество: BDRip (исходник Blu-Ray 1080p)

Формат: AVI
Аудио кодек: MP3
Видео кодек: XviD
Видео: 672x368 (1.83:1), 23.976 fps, XviD build 50 ~1124 kbps avg, 0.19 bit/pixel

Звук: 48 kHz, MPEG Layer 3, 2 ch, ~128.00 kbps avg

Семпл
Общее

Полное имя : D:Институт Аттикус.BDRip.2014.by.ALGORITM.avi

Формат : AVI

Формат/Информация : Audio Video Interleave

Размер файла : 748 Мбайт

Продолжительность : 1 ч. 22 м.

Общий поток : 1262 Кбит/сек

Программа кодирования : VirtualDubMod 1.5.10.2 (build 2540/release)

Библиотека кодирования : VirtualDubMod build 2540/release



Видео

Идентификатор : 0

Формат : MPEG-4 Visual

Профиль формата : Advanced [email protected]

Параметр BVOP формата : 2

Параметр QPel формата : Нет

Параметр GMC формата : Без точки перехода

Параметр матрицы формата : Выборочная

Идентификатор кодека : XVID

Идентификатор кодека/Подсказка : XviD

Продолжительность : 1 ч. 22 м.

Битрейт : 1125 Кбит/сек

Ширина : 672 пикселя

Высота : 368 пикселей

Соотношение сторон : 1,85:1

Частота кадров : 23,976 кадра/сек

Цветовое пространство : YUV

Субдискретизация насыщенности : 4:2:0

Битовая глубина : 8 бит

Тип развёртки : Прогрессивная

Метод сжатия : С потерями

Бит/(Пиксели*Кадры) : 0.190

Размер потока : 666 Мбайт (89%)

Библиотека кодирования : XviD 1.2.1 (UTC 2008-12-04)



Аудио

Идентификатор : 1

Формат : MPEG Audio

Версия формата : Version 1

Профиль формата : Layer 3

Идентификатор кодека : 55

Идентификатор кодека/Подсказка : MP3

Продолжительность : 1 ч. 22 м.

Вид битрейта : Постоянный

Битрейт : 128 Кбит/сек

Каналы : 2 канала

Частота : 48,0 КГц

Метод сжатия : С потерями

Размер потока : 75,8 Мбайт (10%)

Выравнивание : Соединение по промежуткам

Продолжительность промежутка : 42 мс. (1,00 видеокадр)

Время предзагрузки промежутка : 504 мс.

Заголовок : Дублированный

Библиотека кодирования : LAME3.99r

Настройки программы : -m s -V 4 -q 0 -lowpass 17 -b 128
freetor.icu



Скачать Институт Аттикус через торрент http://i60.fastpic.ru/big/2015/0714/50/adcc5fd6c6aac6cf7ad410a0f0db5350.png Скачать, смотреть онлайн Институт Аттикус бесплантно в хорошем качестве Описание: Генри Уэст основал институт Аттикус, который занимается исследованием людей с паранормальными способностями — телекинез, ... 7.8 10 16
Торрент: Зарегистрирован [2015-07-14 09:40] · скачан: 385 раз
Статус: √ проверено
Размер: 748 MB
Как cкачать? Как скачать Институт Аттикус через торрент | UTorrent

% Раздел Тема Автор DL S | L
Фильмы 2015 [DVDrip, WEB-DLRip, HDrip] [ 2.18 GB ] Институт Аттикус / The Atticus Institute [2015 BDRip-AVC от sokol_ok] Dub sokol_ok Скачать
2 | 0
Фильмы 2015 [DVDrip, WEB-DLRip, HDrip] [ 1.37 GB ] Институт Аттикус / The Atticus Institute [2015 HDRip - / ] GEKADOL Скачать
1 | 0
Фильмы 2015 [DVDrip, WEB-DLRip, HDrip] [ 1.45 GB ] Институт Аттикус / The Atticus Institute [2015 BDRip-AVC от sokol_ok] Dub sokol_ok Скачать
2 | 0
Фильмы (Blu-ray, BD-Remux, HDDVD) [ 16.7 GB ] Институт Аттикус / The Atticus Institute [2015 BDRemux 1080p от NovaLan] DUB Ворон Скачать
1 | 0
Фильмы (DVD фильмы) [ 5.02 GB ] Институт Аттикус / The Atticus Institute [2015 DVD9] R5 voovaz Скачать
1 | 0
Фильмы [HD 720p, 1080p] (Хороший звук DUB, MVO) [ 5.85 GB ] Институт Аттикус / The Atticus Institute [2015 BDRip 1080p - / ] GEKADOL Скачать
1 | 0

28-11-2019 20:33  

Отключить всю рекламу на сайте

14-07-2015 16:04 Институт Аттикус Скачать торрент  

ну как бы и ничего,разок можно посмотреть.freetor.icu



15-07-2015 10:15 Институт Аттикус Скачать торрент  

да отличный фильмец про дИАвола.вроде и классика жанра,но всё же сюжет не обычный.короче,не пожалеете что посмотрели.)))freetor.icu



19-07-2015 16:38 Институт Аттикус Скачать торрент  

Фильм УГ.Не советую тратить время на это.freetor.icu



22-07-2015 20:35 Институт Аттикус Скачать торрент  

Каму верить придется глянуть 0))))freetor.icu



    Дорогой пользователь! Огромная просьба, поблагодарите релизера, оцените раздачу и оставьте свои комментарий, если Вы скачали Институт Аттикус через торрент бесплатно!
    Комментировать посты могут только пользователи прошедшие не сложную регистрацию
    Показать сообщения:    

    Институт Аттикус через торрент
    Скачать бесплатно Институт Аттикус
    Институт Аттикус скачать торрент
    Институт Аттикус смотреть онлайн
    Cкачать фильм Институт Аттикус бесплатно
    Институт Аттикус скачать торрент в хорошем качестве
    Институт Аттикус смотреть онлайн бесплатно в хорошем качестве


    Вы не можете начинать темы
    Вы не можете отвечать на сообщения
    Вы не можете редактировать свои сообщения
    Вы не можете удалять свои сообщения
    Вы не можете голосовать в опросах
    Вы не можете прикреплять файлы к сообщениям
    Вы можете скачивать файлы