>

8.4

Хороший звук

6.1

MVO

6.4

Line & MVO

1

7.4

1 сезон

6.8

iTunes

7.2

1 сезон

13

6.7

1 сезон

8.3

RePack

30

Deluxe

pack

9.9

Лицензия

ВАЖНО

ИГРА 18+

pack

7.3

RePack

MK11

7.7

RePack

jed

7.8

RePack

fifa19

8.5

RePack

RDR2

RePack

NEED FOR SPEED™ PAYBACK

4 сезон

9 сезон

Бесстыжие 9 сезон

Все сериалы

все сериалы на PB.wtf

RePack

FAR CRY 5

Anonymous, доброе утро, мы катастрофически не успеваем собрать деньги на оплату серверов, помогите нам пожалуйста 5,10,15р., для нас важна любая помощь . В качестве благодарности мы отключим Вам всю рекламу на сайте (укажите свой ник в строку Ваше имя)!

×
  
Magnet ссылка

Дурман / Nasha (Амит Сахена) [2013, триллер, драма, мелодрама, BDRip 1080p, Любительский (двухголосый) [den904, DeadSno] freetor.icu

Дурман через торрент freetor.icu

Размер: 10.17 GB | Добавлен: 6 лет 2 мес. назад | Торрент скачан:10 раз
Смотреть онлайн Дурман | Скачать    Ребята, помогите собрать деньги на оплату серверов!!!

12-07-2015 01:13 Дурман Скачать торрент  


Дурман / Nasha


ИНФОРМАЦИЯ:
Год выпуска:2013
Страна: Индия
Жанр: триллер, драма, мелодрама
Продолжительность: 01:56:04
Перевод: Любительский (двухголосый) [den904, DeadSno]
Режиссер: Амит Сахена

В Ролях:
Ranbir Chakma (Tenzin), Никхил Десаи (Pawan), Raj Kesaria (Raj), Rohan Khurana (Sunny), Tanuka Laghate (Prachi), Чираг Лобо (Tarun), Poonam Pandey (Anita), Shivam Patil (Sahil), Sheetal Singh (Tia)

Описание:
Группа подростков беззаботно проводят свое время в ожидании выпускных экзаменов. На летние каникулы дирекция школы приглашает Аниту, довольно привлекательную девушку, с целью основать драматический кружок и новая учительница мгновенно приковывает внимание ребят...

  • Мировая премьера:26 июля 2013

    ТЕХ.ДАННЫЕ:
    Качество: BDRip 1080p
    Формат: MKV
    Видео кодек: AVC
    Аудио кодек: AC3, DTS-HD
    Видео: AVC, 1920x816 (2.35:1), 10046 kbps, 24 fps, 0,267 bpp
    Аудио №1: русский / AC3 / 2.0 / 48 kHz / 192 kbps / 16 bit ||
    Аудио №2: Hindi / DTS-HD / 5.1 / 48 kHz / 2058 kbps / 24 bit (Core: 5.1 / 48 kHz / 1510 kbps / 24 bit)


    Код:

    General
    Unique ID                                : 241616413557006737947424443823295362649 (0xB5C5A0EB6FF67E689B5C81C2822CF659)
    Complete name                            : D:\Торенты\Nasha 2013 Hindi Bluray 1080p x264 DTS.Kolobok.HoneyHaseena.mkv
    Format                                   : Matroska
    Format version                           : Version 4 / Version 2
    File size                                : 10.2 GiB
    Duration                                 : 1h 56mn
    Overall bit rate mode                    : Variable
    Overall bit rate                         : 12.5 Mbps
    Encoded date                             : UTC 2015-07-05 02:46:28
    Writing application                      : mkvmerge v6.6.0 ('The Edge Of The In Between') built on Dec  1 2013 17:55:00
    Writing library                          : libebml v1.3.0 + libmatroska v1.4.1

    Video
    ID                                       : 1
    Format                                   : AVC
    Format/Info                              : Advanced Video Codec
    Format profile                           : High@L4.1
    Format settings, CABAC                   : Yes
    Format settings, ReFrames                : 5 frames
    Codec ID                                 : V_MPEG4/ISO/AVC
    Duration                                 : 1h 56mn
    Bit rate                                 : 10.0 Mbps
    Nominal bit rate                         : 8 000 Kbps
    Width                                    : 1 920 pixels
    Height                                   : 816 pixels
    Display aspect ratio                     : 2.35:1
    Frame rate                               : 24.000 fps
    Color space                              : YUV
    Chroma subsampling                       : 4:2:0
    Bit depth                                : 8 bits
    Scan type                                : Progressive
    Bits/(Pixel*Frame)                       : 0.267
    Stream size                              : 8.15 GiB (80%)
    Writing library                          : x264 core 138 r2358 9e941d1
    Encoding settings                        : cabac=1 / ref=5 / deblock=1:-1:-1 / analyse=0x3:0x113 / me=umh / subme=10 / psy=1 / psy_rd=1.00:0.10 / mixed_ref=1 / me_range=18 / chroma_me=1 / trellis=2 / 8x8dct=1 / cqm=0 / deadzone=21,11 / fast_pskip=0 / chroma_qp_offset=-3 / threads=36 / lookahead_threads=6 / sliced_threads=0 / nr=0 / decimate=1 / interlaced=0 / bluray_compat=0 / constrained_intra=0 / bframes=8 / b_pyramid=2 / b_adapt=2 / b_bias=0 / direct=1 / weightb=1 / open_gop=0 / weightp=2 / keyint=240 / keyint_min=24 / scenecut=40 / intra_refresh=0 / rc_lookahead=40 / rc=2pass / mbtree=1 / bitrate=8000 / ratetol=1.0 / qcomp=0.60 / qpmin=0 / qpmax=69 / qpstep=4 / cplxblur=20.0 / qblur=0.5 / vbv_maxrate=62500 / vbv_bufsize=78125 / nal_hrd=none / ip_ratio=1.40 / aq=1:1.00
    Language                                 : English
    Default                                  : Yes
    Forced                                   : No
    Color primaries                          : Generic film
    Transfer characteristics                 : BT.709-5, BT.1361
    Matrix coefficients                      : BT.709-5, BT.1361, IEC 61966-2-4 709, SMPTE RP177

    Audio #1
    ID                                       : 2
    Format                                   : AC-3
    Format/Info                              : Audio Coding 3
    Mode extension                           : CM (complete main)
    Codec ID                                 : A_AC3
    Duration                                 : 1h 56mn
    Bit rate mode                            : Constant
    Bit rate                                 : 192 Kbps
    Channel(s)                               : 2 channels
    Channel positions                        : Front: L R
    Sampling rate                            : 48.0 KHz
    Bit depth                                : 16 bits
    Compression mode                         : Lossy
    Stream size                              : 159 MiB (2%)
    Language                                 : Russian
    Default                                  : Yes
    Forced                                   : No

    Audio #2
    ID                                       : 3
    Format                                   : DTS
    Format/Info                              : Digital Theater Systems
    Format profile                           : MA / Core
    Codec ID                                 : A_DTS
    Duration                                 : 1h 56mn
    Bit rate mode                            : Variable
    Bit rate                                 : 2 059 Kbps / 1 510 Kbps
    Channel(s)                               : 6 channels
    Channel positions                        : Front: L C R, Side: L R, LFE
    Sampling rate                            : 48.0 KHz
    Bit depth                                : 24 bits
    Compression mode                         : Lossless / Lossy
    Delay relative to video                  : 3ms
    Language                                 : Hindi
    Default                                  : No
    Forced                                   : No

    Скриншоты:


    © Оформление by Ворон
    freetor.icu



  • Скачать Дурман через торрент https://pic1.kartinco.top/images/61/stazu.jpg Скачать, смотреть онлайн Дурман бесплантно в хорошем качестве Описание: Группа подростков беззаботно проводят свое время в ожидании выпускных экзаменов. На летние каникулы дирекция школы приглашает ... 10 10 2
    Торрент: Зарегистрирован [2015-07-12 01:13] · скачан: 10 раз
    Статус: √ проверено
    Размер: 10.17 GB
    Как cкачать? Как скачать Дурман через торрент | UTorrent

    28-11-2019 20:33  

    Отключить всю рекламу на сайте

      Дорогой пользователь! Огромная просьба, поблагодарите релизера, оцените раздачу и оставьте свои комментарий, если Вы скачали Дурман через торрент бесплатно!
      Комментировать посты могут только пользователи прошедшие не сложную регистрацию
      Показать сообщения:    

      Дурман через торрент
      Скачать бесплатно Дурман
      Дурман скачать торрент
      Дурман смотреть онлайн
      Cкачать фильм Дурман бесплатно
      Дурман скачать торрент в хорошем качестве
      Дурман смотреть онлайн бесплатно в хорошем качестве


      Вы не можете начинать темы
      Вы не можете отвечать на сообщения
      Вы не можете редактировать свои сообщения
      Вы не можете удалять свои сообщения
      Вы не можете голосовать в опросах
      Вы не можете прикреплять файлы к сообщениям
      Вы можете скачивать файлы