Anonymous, доброй ночи, присоединяйтесь к нам в Telegram!, здесь всегда актуальный адрес сайта, оперативная поддержка и многое другое!

>

5.6

iTunes

7.4

MVO

5.7

MVO

1

7.7

1 сезон

6.8

iTunes

7.3

1 сезон

13

6.7

1 сезон

8.3

RePack

30

ULTIMATE

pack

9.9

Лицензия

ВАЖНО

ИГРА 18+

pack

7.3

RePack

MK11

7.7

RePack

jed

7.8

RePack

fifa19

8.5

RePack

RDR2

RePack

NEED FOR SPEED™ PAYBACK

4 сезон

9 сезон

Бесстыжие 9 сезон

Все сериалы

все сериалы на PB.wtf

RePack

FAR CRY 5

Anonymous, доброй ночи, мы катастрофически не успеваем собрать деньги на оплату серверов, помогите нам пожалуйста 5,10,15р., для нас важна любая помощь . В качестве благодарности мы отключим Вам всю рекламу на сайте (укажите свой ник в строку Ваше имя)!

×
  
Magnet ссылка

Один и без оружия (Владимир Хотиненко, Павел Фаттахутдинов) [1984, СССР, боевик, приключения, DVDRip от AVP Studio] freetor.icu

Один и без оружия через торрент freetor.icu

Размер: 1.46 GB | Добавлен: 6 лет 3 мес. назад | Торрент скачан:24 раза
Смотреть онлайн Один и без оружия | Скачать    Ребята, помогите собрать деньги на оплату серверов!!!

04-07-2015 08:01 Один и без оружия Скачать торрент  

Один и без оружия Страна: CCCP
Производство: Свердловская киностудия

Жанр: боевик, приключения
Год выпуска: 1984
Продолжительность: 01:12:32

Перевод: не требуется
Оригинальная аудиодорожка: русский
Cубтитры: нет

Режиссер: Владимир Хотиненко, Павел Фаттахутдинов

В ролях:
Василий Мищенко, Иван Агафонов, Всеволод Ларионов, Виктор Борцов, Борис Галкин, Валерий Захарьев, Андрей Зыков, Адольф Ильин, Дилором Камбарова, Михаил Кононов, Авангард Леонтьев, Елена Майорова, Талгат Нигматулин, Николай Сморчков, Янис Клушс, Пётр Олев, Петр Полев, Александр Сухих...


Действие приключенческого фильма происходят в 1927 году в небольшом губернском городке. Новым начальником уголовного розыска назначается бывший красный командир Константин Воронцов. В это время в городе появляется матерый рецидивист Корней. Благодаря успешно проведенной операции, становится известно место воровского схода, но Корней, предчувствуя засаду, в последний момент меняет место встречи. Времени предупредить своих у Воронцова нет, и ему приходится одному идти на воровской сход…

Исходник: DVD5 R5
Тип релиза: DVDRip
Контейнер: AVI
Видео кодек: XviD
Аудио кодек: AC3
Видео: 688x528 (4:3), 25 fps, XviD ~ 2482 kbps avg, 0.273 bit/pixel
Аудио: 48 kHz, Dolby Digital AC3 5.1, 384 kbps

Раздача от:
Общее
Полное имя : Odin.i.bez.oruzhiya.1984.DVDRip_[New-team]_by_AVP_Studio.avi
Формат : AVI
Формат/Информация : Audio Video Interleave
Размер файла : 1,46 Гбайт
Продолжительность : 1 ч. 12 м.
Общий поток : 2875 Кбит/сек
Программа кодирования : VirtualDubModRus 1.5.10.2 (build 2542/release)
Библиотека кодирования : VirtualDubMod build 2542/release

Видео
Идентификатор : 0
Формат : MPEG-4 Visual
Профиль формата : Advanced Simple@L5
Параметр BVOP формата : 1
Параметр QPel формата : Нет
Параметр GMC формата : Без точки перехода
Параметр матрицы формата : Выборочная
Идентификатор кодека : XVID
Идентификатор кодека/Подсказка : XviD
Продолжительность : 1 ч. 12 м.
Битрейт : 2482 Кбит/сек
Ширина : 688 пикселей
Высота : 528 пикселей
Соотношение сторон : 4:3
Частота кадров : 25,000 кадров/сек
Цветовое пространство : YUV
Субдискретизация насыщенности : 4:2:0
Битовая глубина : 8 бит
Тип развёртки : Прогрессивная
Метод сжатия : С потерями
Бит/(Пиксели*Кадры) : 0.273
Размер потока : 1,26 Гбайт (86%)
Библиотека кодирования : XviD 73

Аудио
Идентификатор : 1
Формат : AC-3
Формат/Информация : Audio Coding 3
Расширение режима : CM (complete main)
Параметр Endianness формата : Big
Идентификатор кодека : 2000
Продолжительность : 1 ч. 12 м.
Вид битрейта : Постоянный
Битрейт : 384 Кбит/сек
Каналы : 6 каналов
Расположение каналов : Front: L C R, Side: L R, LFE
Частота : 48,0 КГц
Битовая глубина : 16 бит
Метод сжатия : С потерями
Задержка видео : 602 мс.
Размер потока : 199 Мбайт (13%)
Выравнивание : Разделение по промежуткам
Продолжительность промежутка : 40 мс. (1,00 видеокадр)
Время предзагрузки промежутка : 500 мс
freetor.icu



Скачать Один и без оружия через торрент http://i59.fastpic.ru/big/2014/0209/a8/8f554b143db2e5b96c6c78433ea5c3a8.png Скачать, смотреть онлайн Один и без оружия бесплантно в хорошем качестве В ролях:Василий Мищенко, Иван Агафонов, Всеволод Ларионов, Виктор Борцов, Борис Галкин, Валерий Захарьев, Андрей Зыков, Адольф Ильин, ... 9.3 10 3
Торрент: Зарегистрирован [2015-07-04 08:01] · скачан: 24 раз
Статус: √ проверено
Размер: 1.46 GB
Как cкачать? Как скачать Один и без оружия через торрент | UTorrent

% Раздел Тема Автор DL S | L
Кино СССР [ 1.46 GB ] Один и без оружия [1984 СССР DVDRip-AVC от AVP Studio] AVP Studio Скачать
1 | 0
Кино СССР [ 744 MB ] Один и без оружия [1984 СССР DVDRip от AVP Studio] AVP Studio Скачать
1 | 0

28-11-2019 20:33  

Отключить всю рекламу на сайте

    Дорогой пользователь! Огромная просьба, поблагодарите релизера, оцените раздачу и оставьте свои комментарий, если Вы скачали Один и без оружия через торрент бесплатно!
    Комментировать посты могут только пользователи прошедшие не сложную регистрацию
    Показать сообщения:    

    Один и без оружия через торрент
    Скачать бесплатно Один и без оружия
    Один и без оружия скачать торрент
    Один и без оружия смотреть онлайн
    Cкачать фильм Один и без оружия бесплатно
    Один и без оружия скачать торрент в хорошем качестве
    Один и без оружия смотреть онлайн бесплатно в хорошем качестве


    Вы не можете начинать темы
    Вы не можете отвечать на сообщения
    Вы не можете редактировать свои сообщения
    Вы не можете удалять свои сообщения
    Вы не можете голосовать в опросах
    Вы не можете прикреплять файлы к сообщениям
    Вы можете скачивать файлы