>

5.6

iTunes

6.1

MVO

5.7

MVO

1

7.4

1 сезон

6.8

iTunes

7.2

1 сезон

13

6.7

1 сезон

8.3

RePack

30

Deluxe

pack

9.9

Лицензия

ВАЖНО

ИГРА 18+

pack

7.3

RePack

MK11

7.7

RePack

jed

7.8

RePack

fifa19

8.5

RePack

RDR2

RePack

NEED FOR SPEED™ PAYBACK

4 сезон

9 сезон

Бесстыжие 9 сезон

Все сериалы

все сериалы на PB.wtf

RePack

FAR CRY 5

Anonymous, добрый вечер, мы катастрофически не успеваем собрать деньги на оплату серверов, помогите нам пожалуйста 5,10,15р., для нас важна любая помощь . В качестве благодарности мы отключим Вам всю рекламу на сайте (укажите свой ник в строку Ваше имя)!

×
  
Magnet ссылка

Детектив Бёмкеш Бакши / Detective Byomkesh Bakshy! (Дибакар Банерджи ) [2015, триллер, детектив, HDRip, Любительский (двухголосый) [den904, DeadSno] freetor.icu

Детектив Бёмкеш Бакши через торрент freetor.icu

Размер: 1.46 GB | Добавлен: 6 лет 2 мес. назад | Торрент скачан:24 раза
Смотреть онлайн Детектив Бёмкеш Бакши | Скачать    Ребята, помогите собрать деньги на оплату серверов!!!

30-06-2015 07:56 Детектив Бёмкеш Бакши Скачать торрент  


Детектив Бёмкеш Бакши / Detective Byomkesh Bakshy!
«Expect The Unexpected»

ИНФОРМАЦИЯ:
Год выпуска: 2015
Страна: Индия
Жанр: триллер, детектив
Продолжительность: 02:19:03
Перевод: Любительский (двухголосый) [den904, DeadSno] по субтитрам Honey & Haseena
Субтитры: русские (вшитые, на тексты песен)
Режиссер: Дибакар Банерджи

В Ролях:


Сушант Сингх Раджпут (Byomkesh Bakshy), Ананд Тивари (Ajit Banerjee), Divya Menon (Satyawati), Свастика Мукхерджи (Anguri Devi), Нирадж Каби (Dr. Anukul Guha), Марк Беннингтон (Deputy Commissioner Wilkie), Мейянг Чанг (Kanai Dao), Таканори Кикути (Dr. Watanabe), Dr. Kaushik Ghosh (Gajanan Sikdar), Shivam (Sukumar), Pradipto Kumar Chakraborty (Puntiram), Arindoi Bagchi (Ashwini Babu)

Описание:
Ноябрь 1942 года. Идёт вторая мировая война. Японцы через границу Индии и Мьянмы ищут способы вторгнуться на территорию Калькутты. Именно в это время, начинающий писатель Аджит обращается к детективу Бёмкешу за помощью в поисках без вести пропавшего отца, от которого нет вестей вот уже второй месяц. Детектив откликается на просьбу страждущего и начинает поиски с окружения пропавшего, непризнанного гения-химика Бхувана, который впервые создал формулу и ввёл в Калькутту понятие "опиум". От калькуттских политиков до японских мафиози, от китайских головорезов до алчных американцев...Все в этой истории о пропаже величайшего гения свободного плавания внесли свою лепту. Поиски ведут Бёмкеша в некий лабиринт, схему которого знает лишь его главный создатель, до которого очень трудно добраться и распутать весь этот загадочный клубок...

  • Мировая премьера:2 апреля 2015

    ТЕХ.ДАННЫЕ:
    Качество: HDRip
    Формат: AVI
    Видео кодек: XviD
    Аудио кодек: AC3
    Видео: XviD, 720x304 (2.35:1), 1243 kbps, 24 fps, 0,237 bpp
    Аудио: AC3 / 2.0 / 48 kHz / 192 kbps / 16 bit



    Код:

    General
    Complete name                            : D:\Торенты\Detektiv.Byomkesh.Bakshi.2015.XviD.HDRip-Dego.avi
    Format                                   : AVI
    Format/Info                              : Audio Video Interleave
    File size                                : 1.46 GiB
    Duration                                 : 2h 19mn
    Overall bit rate                         : 1 504 Kbps
    Writing application                      : VirtualDubMod 1.5.10.2 (build 2540/release)
    Writing library                          : VirtualDubMod build 2540/release

    Video
    ID                                       : 0
    Format                                   : MPEG-4 Visual
    Format profile                           : Advanced Simple@L5
    Format settings, BVOP                    : 1
    Format settings, QPel                    : No
    Format settings, GMC                     : No warppoints
    Format settings, Matrix                  : Custom
    Codec ID                                 : XVID
    Codec ID/Hint                            : XviD
    Duration                                 : 2h 19mn
    Bit rate                                 : 1 243 Kbps
    Width                                    : 720 pixels
    Height                                   : 304 pixels
    Display aspect ratio                     : 2.35:1
    Frame rate                               : 24.000 fps
    Color space                              : YUV
    Chroma subsampling                       : 4:2:0
    Bit depth                                : 8 bits
    Scan type                                : Progressive
    Compression mode                         : Lossy
    Bits/(Pixel*Frame)                       : 0.237
    Stream size                              : 1.21 GiB (83%)
    Writing library                          : XviD 1.2.1 (UTC 2008-12-04)

    Audio
    ID                                       : 1
    Format                                   : AC-3
    Format/Info                              : Audio Coding 3
    Mode extension                           : CM (complete main)
    Codec ID                                 : 2000
    Duration                                 : 2h 19mn
    Bit rate mode                            : Constant
    Bit rate                                 : 192 Kbps
    Channel(s)                               : 2 channels
    Channel positions                        : Front: L R
    Sampling rate                            : 48.0 KHz
    Bit depth                                : 16 bits
    Compression mode                         : Lossy
    Stream size                              : 191 MiB (13%)
    Alignment                                : Split accross interleaves

    Скриншоты:


    © Оформление by Ворон
    freetor.icu



  • Скачать Детектив Бёмкеш Бакши через торрент https://pic1.kartinco.top/images/61/ordi9.jpg Скачать, смотреть онлайн Детектив Бёмкеш Бакши бесплантно в хорошем качестве Описание: Ноябрь 1942 года. Идёт вторая мировая война. Японцы через границу Индии и Мьянмы ищут способы вторгнуться на территорию ... 9 10 4
    Торрент: Зарегистрирован [2015-06-30 07:56] · скачан: 24 раз
    Статус: √ проверено
    Размер: 1.46 GB
    Как cкачать? Как скачать Детектив Бёмкеш Бакши через торрент | UTorrent

    28-11-2019 20:33  

    Отключить всю рекламу на сайте

      Дорогой пользователь! Огромная просьба, поблагодарите релизера, оцените раздачу и оставьте свои комментарий, если Вы скачали Детектив Бёмкеш Бакши через торрент бесплатно!
      Комментировать посты могут только пользователи прошедшие не сложную регистрацию
      Показать сообщения:    

      Детектив Бёмкеш Бакши через торрент
      Скачать бесплатно Детектив Бёмкеш Бакши
      Детектив Бёмкеш Бакши скачать торрент
      Детектив Бёмкеш Бакши смотреть онлайн
      Cкачать фильм Детектив Бёмкеш Бакши бесплатно
      Детектив Бёмкеш Бакши скачать торрент в хорошем качестве
      Детектив Бёмкеш Бакши смотреть онлайн бесплатно в хорошем качестве


      Вы не можете начинать темы
      Вы не можете отвечать на сообщения
      Вы не можете редактировать свои сообщения
      Вы не можете удалять свои сообщения
      Вы не можете голосовать в опросах
      Вы не можете прикреплять файлы к сообщениям
      Вы можете скачивать файлы