Присоединяйтесь к нам в Telegram!, здесь всегда актуальный адрес сайта, оперативная поддержка и многое другое!!

>

5.9

iTunes

7.4

iTunes

9.4

1 сезон

1

7.4

2 сезон

7.2

iTunes

7.3

iTunes

13

6.1

iTunes

8.3

Пиратка

30

ULTIMATE

pack

9.9

Лицензия

ВАЖНО

ИГРА 18+

pack

7.3

RePack

MK11

7.7

RePack

jed

7.8

RePack

fifa19

8.5

RePack

RDR2

RePack

NEED FOR SPEED™ PAYBACK

5 сезон

9 сезон

Бесстыжие 9 сезон

Все сериалы

все сериалы на PB.wtf

RePack

FAR CRY 5

Anonymous, доброе утро, мы катастрофически не успеваем собрать деньги на оплату серверов, помогите нам пожалуйста 5,10,15р., для нас важна любая помощь . В качестве благодарности мы отключим Вам всю рекламу на сайте (укажите свой ник в строку Ваше имя)!

×
  
Magnet ссылка

Замуж любой ценой / With This Ring (Nzingha Stewart) [2015, США, драма, комедия, WEB-DLRip, MVO] [Лицензия / iTunes] freetor.icu

Замуж любой ценой через торрент freetor.icu

Размер: 1.37 GB | Добавлен: 6 лет 5 мес. назад | Торрент скачан:660 раз
Смотреть онлайн Замуж любой ценой | Скачать    Ребята, помогите собрать деньги на оплату серверов!!!

23-06-2015 07:42 Замуж любой ценой Скачать торрент  

Замуж любой ценой / With This Ring


  • Год выпуска: 2015
  • Страна: США
  • Жанр: драма, комедия
  • Продолжительность: 01:27:40
  • Перевод: Профессиональный многоголосый закадровый) [Лицензия / iTunes]

  • Режиссер: Nzingha Stewart
  • В ролях:

    Дэвис Агилья (Date #1), Катрин Андерсон (Casting Assistant), Robert Bray (Waiter), Sarah Marie Claire Brooks, Кристина Касик (Restaurant Patron), Джеффри Кэйн (Wedding Guest), Кайл Картенс (William Branford Johnson), Holly Nicole Chakan (Restaurant Guest), Майкл Сипити (Police Officer), Лайла Кашман (Karen), Адриан Дензель (гость), Ив

  • Описание:
    Три подруги поклялись, что в течение года выйдут замуж. Но каждой из них придется столкнуться со своими проблемами: Триста не может забыть своего бывшего парня, Вивиан втайне влюблена в отца своего сына, ну а Амайя изо всех сил пытается разрушить несчастливый брак своего бывшего возлюбленного. Они все начинают год полные надежд... но вот получится ли у них взойти под венец?
  • Рейтинг:



  • Качество: WEB-DLRip
  • Формат: :AVI
  • Видео кодек: XviD
  • Аудио кодек: AC3
  • Видео: 720x400 (16:9), 1840 kbps, 23,976 fps, 0,267 bpp
  • Аудио: 5.1 / 48 kHz / 384 kbps / 16 bit
  • Релиз от:

    Код:

    General
    Complete name                            : F:\Zamuzh.ljuboj.cenoj.2015.P.WEB-DLRip.ELEKTRI4KA.Uniongang.tv.avi
    Format                                   : AVI
    Format/Info                              : Audio Video Interleave
    File size                                : 1.37 GiB
    Duration                                 : 1h 27mn
    Overall bit rate                         : 2 234 Kbps
    Movie name                               : Zamuzh.ljuboj.cenoj.2015.P.WEB-DLRip.ELEKTRI4KA.Uniongang.tv
    Director                                 : Дракоша
    Writing application                      : VirtualDubMod 1.5.10.3 | www.virtualdub-fr.org || (build 2550/release)
    Copyright                                : UNIONGANG&RUSTORRENTS
    Comment                                  : Не переименовывать!

    Video
    ID                                       : 0
    Format                                   : MPEG-4 Visual
    Format profile                           : Advanced [email protected]
    Format settings, BVOP                    : 3
    Format settings, QPel                    : No
    Format settings, GMC                     : No warppoints
    Format settings, Matrix                  : Default (H.263)
    Codec ID                                 : XVID
    Codec ID/Hint                            : XviD
    Duration                                 : 1h 27mn
    Bit rate                                 : 1 841 Kbps
    Width                                    : 720 pixels
    Height                                   : 400 pixels
    Display aspect ratio                     : 16:9
    Frame rate                               : 23.976 fps
    Color space                              : YUV
    Chroma subsampling                       : 4:2:0
    Bit depth                                : 8 bits
    Scan type                                : Progressive
    Compression mode                         : Lossy
    Bits/(Pixel*Frame)                       : 0.267
    Stream size                              : 1.13 GiB (82%)
    Writing library                          : XviD 73

    Audio
    ID                                       : 1
    Format                                   : AC-3
    Format/Info                              : Audio Coding 3
    Mode extension                           : CM (complete main)
    Codec ID                                 : 2000
    Duration                                 : 1h 27mn
    Bit rate mode                            : Constant
    Bit rate                                 : 384 Kbps
    Channel(s)                               : 6 channels
    Channel positions                        : Front: L C R, Side: L R, LFE
    Sampling rate                            : 48.0 KHz
    Bit depth                                : 16 bits
    Compression mode                         : Lossy
    Stream size                              : 241 MiB (17%)
    Alignment                                : Split accross interleaves
    Interleave, duration                     : 42 ms (1.00 video frame)
    Interleave, preload duration             : 500 ms


    Скриншоты:



    freetor.icu



  • Скачать Замуж любой ценой через торрент http://i4.imageban.ru/out/2015/06/23/798ef94a525cc6ce01fcbc83df468a04.jpg Скачать, смотреть онлайн Замуж любой ценой бесплантно в хорошем качестве Описание: Три подруги поклялись, что в течение года выйдут замуж. Но каждой из них придется столкнуться со своими проблемами: Триста не ... 8.5 10 12
    Торрент: Зарегистрирован [2015-06-23 07:43] · скачан: 660 раз
    Статус: √ проверено
    Размер: 1.37 GB
    Как cкачать? Как скачать Замуж любой ценой через торрент | UTorrent

    % Раздел Тема Автор DL S | L
    Фильмы (WEB-DL 720p, 1080p) [ 3.46 GB ] Замуж любой ценой / With This Ring [2015 WEB-DL 1080p MVO] + ENG + UKR GEKADOL Скачать
    1 | 0
    Фильмы (WEB-DL 720p, 1080p) [ 3.12 GB ] Замуж любой ценой / With This Ring [2015 WEB-DL 720p MVO] GEKADOL Скачать
    1 | 0

    28-11-2019 20:33  

    Отключить всю рекламу на сайте

    23-06-2015 16:25 Замуж любой ценой Скачать торрент  

    ...Вивиан втайне влюблена в отца своего сына,...freetor.icu



    24-06-2015 20:29 Замуж любой ценой Скачать торрент  

    Sokol57 писал(а):

    ...Вивиан втайне влюблена в отца своего сына,...

    :rofle:freetor.icu



    25-06-2015 06:30 Замуж любой ценой Скачать торрент  

    Ничего сверх нового в фильме нет. Обычный фильм ни чем не примечателен с кучей негров. Комедией и не пахнет. Еле еле досмотрел.freetor.icu



      Дорогой пользователь! Огромная просьба, поблагодарите релизера, оцените раздачу и оставьте свои комментарий, если Вы скачали Замуж любой ценой через торрент бесплатно!
      Комментировать посты могут только пользователи прошедшие не сложную регистрацию
      Показать сообщения:    

      Замуж любой ценой через торрент
      Скачать бесплатно Замуж любой ценой
      Замуж любой ценой скачать торрент
      Замуж любой ценой смотреть онлайн
      Cкачать фильм Замуж любой ценой бесплатно
      Замуж любой ценой скачать торрент в хорошем качестве
      Замуж любой ценой смотреть онлайн бесплатно в хорошем качестве


      Вы не можете начинать темы
      Вы не можете отвечать на сообщения
      Вы не можете редактировать свои сообщения
      Вы не можете удалять свои сообщения
      Вы не можете голосовать в опросах
      Вы не можете прикреплять файлы к сообщениям
      Вы можете скачивать файлы