Присоединяйтесь к нам в Telegram!, здесь всегда актуальный адрес сайта, оперативная поддержка и многое другое!!

>

5.9

iTunes

7.4

iTunes

9.4

1 сезон

1

7.4

2 сезон

7.2

iTunes

7.3

iTunes

13

6.1

iTunes

8.3

Пиратка

30

ULTIMATE

pack

9.9

Лицензия

ВАЖНО

ИГРА 18+

pack

7.3

RePack

MK11

7.7

RePack

jed

7.8

RePack

fifa19

8.5

RePack

RDR2

RePack

NEED FOR SPEED™ PAYBACK

5 сезон

9 сезон

Бесстыжие 9 сезон

Все сериалы

все сериалы на PB.wtf

RePack

FAR CRY 5

Anonymous, доброе утро, мы катастрофически не успеваем собрать деньги на оплату серверов, помогите нам пожалуйста 5,10,15р., для нас важна любая помощь . В качестве благодарности мы отключим Вам всю рекламу на сайте (укажите свой ник в строку Ваше имя)!

×
  
Magnet ссылка

Простушка / The DUFF (Эри Сандел) [2015 г., комедия, HDRip,Профессиональный (дублированный)[лицензия] freetor.icu

Простушка через торрент freetor.icu

Размер: 1.37 GB | Добавлен: 6 лет 5 мес. назад | Торрент скачан:766 раз
Смотреть онлайн Простушка | Скачать    Ребята, помогите собрать деньги на оплату серверов!!!

16-06-2015 21:09 Простушка Скачать торрент  

Простушка / The DUFF
Год выпуска: 2015
Страна: США
Жанр: комедия
Продолжительность: 01:41:14
Перевод: Профессиональный (дублированный) [лицензия]
Субтитры: нет

Режиссер: Эри Сандел
Продюссер: Сьюзан Картсонис, МакДжи, Мэри Виола
Сценарий: Джош А. Кэган, Коди Кеплингер

Бюджет: $8 500 000
Премьера в мире: 12 февраля 2015



В ролях: Мэй Уитман, Робби Амелл, Белла Торн, Бьянка А. Сантос, Скайлер Сэмюэлс, Романи Малко, Ник Эверсман, Крис Уайлд, Кен Жонг, Эллисон Дженни

Описание: Экранизация любовного романа Коди Кеплингер «The DUFF». Качок, ботан, рокер, стерва — в каждой компании есть персонажи с такими кличками. Бьянка Пайпер не подозревает, как ее зовут за ее спиной. Подружки списывают у нее физику и берут ее с собой на тусовки, чтобы круче смотреться на ее фоне. Школьный плейбой Уэсли Раш открывает ей глаза на правду… Как Бьянке избавиться от позорного статуса, стать неотразимой и завоевать сердце первого красавца?

Качество: HDRip
Формат: AVI
Видео кодек : XviD
Аудио кодек: AC3
Видео: XviD, 720x304 (2.35:1), 23.976 fps, ~ 1540 kbps
Аудио#1: AC3, 48.0 KHz, 6 ch, 384 Kbps



eneral

Complete name : D:\Torrent\Prostushka.2015.D.HDRip.1400Mb.avi
Format : AVI
Format/Info : Audio Video Interleave
File size : 1.37 GiB
Duration : 1h 41mn
Overall bit rate : 1 933 Kbps
Writing application : VirtualDubMod 1.5.10.2 (build 2540/release)
Writing library : VirtualDubMod build 2540/release
Video
ID : 0
Format : MPEG-4 Visual
Format profile : Advanced [email protected]
Format settings, BVOP : 2
Format settings, QPel : No
Format settings, GMC : No warppoints
Format settings, Matrix : Default (MPEG)
Codec ID : XVID
Codec ID/Hint : XviD
Duration : 1h 41mn
Bit rate : 1 540 Kbps
Width : 720 pixels
Height : 304 pixels
Display aspect ratio : 2.35:1
Frame rate : 23.976 fps
Color space : YUV
Chroma subsampling : 4:2:0
Bit depth : 8 bits
Scan type : Progressive
Compression mode : Lossy
Bits/(Pixel*Frame) : 0.293
Stream size : 1.09 GiB (80%)
Writing library : XviD 1.2.1 (UTC 2008-12-04)
Audio
ID : 1
Format : AC-3
Format/Info : Audio Coding 3
Mode extension : CM (complete main)
Format settings, Endianness : Big
Codec ID : 2000
Duration : 1h 41mn
Bit rate mode : Constant
Bit rate : 384 Kbps
Channel(s) : 6 channels
Channel positions : Front: L C R, Side: L R, LFE
Sampling rate : 48.0 KHz
Compression mode : Lossy
Stream size : 278 MiB (20%)
Alignment : Split accross interleaves
Interleave, duration : 42 ms (1.00 video frame)
Interleave, preload duration : 500 ms
freetor.icu



Скачать Простушка через торрент https://pic.kartinco.top/images/11/qk56y.jpg Скачать, смотреть онлайн Простушка бесплантно в хорошем качестве Описание: Экранизация любовного романа Коди Кеплингер «The DUFF». Качок, ботан, рокер, стерва — в каждой компании есть персонажи с такими ... 8.4 10 26
Info! Золотая раздача, скачанное не засчитывается.
Торрент: Зарегистрирован [2015-06-17 23:11] · скачан: 766 раз
Статус: √ проверено
Размер: 1.37 GB
Как cкачать? Как скачать Простушка через торрент | UTorrent

% Раздел Тема Автор DL S | L
Фильмы 2015 [DVDrip, WEB-DLRip, HDrip] [ 1.46 GB ] Простушка / The DUFF [2015 BDRip-AVC] Dub potroks Скачать
1 | 0
Фильмы 2015 [DVDrip, WEB-DLRip, HDrip] [ 2.04 GB ] Простушка / The DUFF [2015 HDRip ""] coc900 Скачать
1 | 0
Фильмы (WEB-DL 720p, 1080p) [ 3.41 GB ] Простушка / The DUFF [2015 WEB-DL 1080p ] Ворон Скачать
1 | 0


Последний раз редактировалось: Zclasss (2015-06-18 09:31), всего редактировалось 3 раз(а)

28-11-2019 20:33  

Отключить всю рекламу на сайте

16-06-2015 21:24 Простушка Скачать торрент  

Был бы у Вас тут звук с лицензии, а не тунца тогда б проверено. А так зачем 2 одинаковые раздачи в разделе, только сравнения покажет какой лучше по картинки, звук одинаковый.

http://pb.wtf/topic/172641/
http://pb.wtf/topic/89002/

Ворон писал(а):

Был бы у Вас тут звук с лицензии, а не тунца тогда б проверено.

это и есть лицензия я не указал

Zclasss,
Есть коробочная лицензия звук от 448 Kbps и выше, а есть Лицензия цифровая тунец как здесь у Вас..Я то знаю что пишу. Ок чтоб Вас не мучать свой удалю и поглощу Вашим без сравнения, но на будущее учтите.
freetor.icu



18-06-2015 09:15 Простушка Скачать торрент  

Ворон, хорошо спасибо ;Dfreetor.icu



    Дорогой пользователь! Огромная просьба, поблагодарите релизера, оцените раздачу и оставьте свои комментарий, если Вы скачали Простушка через торрент бесплатно!
    Комментировать посты могут только пользователи прошедшие не сложную регистрацию
    Показать сообщения:    

    Простушка через торрент
    Скачать бесплатно Простушка
    Простушка скачать торрент
    Простушка смотреть онлайн
    Cкачать фильм Простушка бесплатно
    Простушка скачать торрент в хорошем качестве
    Простушка смотреть онлайн бесплатно в хорошем качестве


    Вы не можете начинать темы
    Вы не можете отвечать на сообщения
    Вы не можете редактировать свои сообщения
    Вы не можете удалять свои сообщения
    Вы не можете голосовать в опросах
    Вы не можете прикреплять файлы к сообщениям
    Вы можете скачивать файлы