Присоединяйтесь к нам в Telegram!, здесь всегда актуальный адрес сайта, оперативная поддержка и многое другое!!

>

5.9

iTunes

7.4

iTunes

9.4

1 сезон

1

7.4

2 сезон

7.2

iTunes

7.3

1 сезон

13

6.1

iTunes

8.3

Пиратка

30

ULTIMATE

pack

9.9

Лицензия

ВАЖНО

ИГРА 18+

pack

7.3

RePack

MK11

7.7

RePack

jed

7.8

RePack

fifa19

8.5

RePack

RDR2

RePack

NEED FOR SPEED™ PAYBACK

5 сезон

9 сезон

Бесстыжие 9 сезон

Все сериалы

все сериалы на PB.wtf

RePack

FAR CRY 5

Anonymous, доброй ночи, мы катастрофически не успеваем собрать деньги на оплату серверов, помогите нам пожалуйста 5,10,15р., для нас важна любая помощь . В качестве благодарности мы отключим Вам всю рекламу на сайте (укажите свой ник в строку Ваше имя)!

×
  
Magnet ссылка

Слендер / Always Watching: A Marble Hornets Story (Джеймс Моран ) [2015, ужасы, WEB-DLRip, Дубляж -Лицензия / iTunes] freetor.icu

Слендер через торрент freetor.icu

Размер: 1.37 GB | Добавлен: 6 лет 6 мес. назад | Торрент скачан:1073 раза
Смотреть онлайн Слендер | Скачать    Ребята, помогите собрать деньги на оплату серверов!!!

29-05-2015 22:21 Слендер Скачать торрент  


Слендер / Always Watching: A Marble Hornets Story
«Он придет за тобой!»

ИНФОРМАЦИЯ:
Год выпуска:2015
Страна: США
Жанр: ужасы
Продолжительность: 01:27:43
Перевод: Дубляж - [Лицензия / iTunes]
Режиссер: Джеймс Моран

В Ролях:


Крис Маркетт (Milo), Александра Брекенридж (Sara), Джейк Макдорман (Charlie MacNeel), Даг Джонс (The Operator), Майкл Бунин (Dan), Александра Холден (Rose), Морган Е. Бастин (Tara), Блэр Бомар (Nikki), Рик Отто (Lee Dylan), Шэшони Холл (Dennis Baru), Синтия Марелл (Karaoke Girl), Грэхэм Кларк (Everett)

Описание:
Съемочная группа, готовящая сюжет про исчезнувшую семью, обнаруживает коробку кассет со свидетельствами появления Слендера - страшного существа, которое можно увидеть только через объектив видеокамеры. Посмотрев пленки, они навлекают на себя ужасное проклятье: их начинает преследовать сам Слендер, от которого не спрятаться и не скрыться.

  • Мировая премьера:7 апреля 2015

    ТЕХ.ДАННЫЕ:
    Качество: WEB-DLRip
    Формат: AVI
    Видео кодек: XviD
    Аудио кодек: AC3
    Видео: XviD, 720x400 (16:9), 1749 kbps, 25 fps, 0,243 bpp
    Аудио: AC3 / 5.1 / 48 kHz / 384 kbps / 16 bit



    Код:

    General
    Complete name                            : D:\Торенты\Slender.2015.D.WEB-DLRip.1400MB.avi
    Format                                   : AVI
    Format/Info                              : Audio Video Interleave
    File size                                : 1.37 GiB
    Duration                                 : 1h 27mn
    Overall bit rate                         : 2 231 Kbps
    Writing application                      : VirtualDubMod 1.5.10.3 | www.virtualdub-fr.org || (build 2550/release)
    Writing library                          : VirtualDubMod build 2550/release

    Video
    ID                                       : 0
    Format                                   : MPEG-4 Visual
    Format profile                           : Advanced [email protected]
    Format settings, BVOP                    : 2
    Format settings, QPel                    : No
    Format settings, GMC                     : No warppoints
    Format settings, Matrix                  : Default (MPEG)
    Codec ID                                 : XVID
    Codec ID/Hint                            : XviD
    Duration                                 : 1h 27mn
    Bit rate                                 : 1 749 Kbps
    Width                                    : 720 pixels
    Height                                   : 400 pixels
    Display aspect ratio                     : 16:9
    Frame rate                               : 25.000 fps
    Color space                              : YUV
    Chroma subsampling                       : 4:2:0
    Bit depth                                : 8 bits
    Scan type                                : Progressive
    Compression mode                         : Lossy
    Bits/(Pixel*Frame)                       : 0.243
    Stream size                              : 1.07 GiB (78%)
    Writing library                          : XviD 1.2.1 (UTC 2008-12-04)

    Audio
    ID                                       : 1
    Format                                   : AC-3
    Format/Info                              : Audio Coding 3
    Mode extension                           : CM (complete main)
    Codec ID                                 : 2000
    Duration                                 : 1h 27mn
    Bit rate mode                            : Constant
    Bit rate                                 : 384 Kbps
    Channel(s)                               : 6 channels
    Channel positions                        : Front: L C R, Side: L R, LFE
    Sampling rate                            : 48.0 KHz
    Bit depth                                : 16 bits
    Compression mode                         : Lossy
    Stream size                              : 241 MiB (17%)
    Alignment                                : Split accross interleaves

    Скриншоты:


    © Оформление by Ворон
    freetor.icu



  • Скачать Слендер через торрент https://pic1.kartinco.top/images/61/ordi9.jpg Скачать, смотреть онлайн Слендер бесплантно в хорошем качестве Описание: Съемочная группа, готовящая сюжет про исчезнувшую семью, обнаруживает коробку кассет со свидетельствами появления Слендера - ... 8.8 10 24
    Торрент: Зарегистрирован [2015-05-29 22:21] · скачан: 1 073 раз
    Статус: √ проверено
    Размер: 1.37 GB
    Как cкачать? Как скачать Слендер через торрент | UTorrent

    % Раздел Тема Автор DL S | L
    Фильмы 2015 [DVDrip, WEB-DLRip, HDrip] [ 1.42 GB ] Слендер / Always Watching: A Marble Hornets Story [2015 BDRip] Dub Twi7ter Скачать
    1 | 0
    Фильмы [HD 720p, 1080p] (Хороший звук DUB, MVO) [ 7.46 GB ] Слендер / Always Watching: A Marble Hornets Story [2015 BDRip 1080p - Ворон Скачать
    1 | 0
    Фильмы (WEB-DL 720p, 1080p) [ 3.32 GB ] Слендер / Always Watching: A Marble Hornets Story [2015 WEB-DL 1080p - / ] Ворон Скачать
    1 | 0
    Фильмы 2015 [DVDrip, WEB-DLRip, HDrip] [ 708 MB ] Слендер / Always Watching: A Marble Hornets Story [2015 WEB-DLRip ""] coc900 Скачать
    1 | 0
    Фильмы (WEB-DL 720p, 1080p) [ 2.72 GB ] Слендер / Always Watching: A Marble Hornets Story [2015 WEB-DL 720p - / ] Ворон Скачать
    1 | 0

    28-11-2019 20:33  

    Отключить всю рекламу на сайте

    30-05-2015 05:18 Слендер Скачать торрент  

    .....ах какой прекрасный рейтингfreetor.icu



    30-05-2015 09:09 Слендер Скачать торрент  

    Думал как в игре хоть не много страшно будет......а н нет(((( Но за раздачу Веталик спасибоfreetor.icu



    30-05-2015 10:54 Слендер Скачать торрент  

    пафига было вобще снимать такой отстой только время потраилfreetor.icu



    30-05-2015 13:52 Слендер Скачать торрент  

    Бездарность,не тратьте зря время фильм отстой.freetor.icu



    30-05-2015 15:13 Слендер Скачать торрент  

    Хороший фильм. Интригующий и не глупый.freetor.icu



    30-05-2015 19:22 Слендер Скачать торрент  

    Смотрел в кино. Рекомендую. Особенно любителя SCPfreetor.icu



    31-05-2015 09:26 Слендер Скачать торрент  

    мне понравился (+)freetor.icu



      Дорогой пользователь! Огромная просьба, поблагодарите релизера, оцените раздачу и оставьте свои комментарий, если Вы скачали Слендер через торрент бесплатно!
      Комментировать посты могут только пользователи прошедшие не сложную регистрацию
      Показать сообщения:    

      Слендер через торрент
      Скачать бесплатно Слендер
      Слендер скачать торрент
      Слендер смотреть онлайн
      Cкачать фильм Слендер бесплатно
      Слендер скачать торрент в хорошем качестве
      Слендер смотреть онлайн бесплатно в хорошем качестве


      Вы не можете начинать темы
      Вы не можете отвечать на сообщения
      Вы не можете редактировать свои сообщения
      Вы не можете удалять свои сообщения
      Вы не можете голосовать в опросах
      Вы не можете прикреплять файлы к сообщениям
      Вы можете скачивать файлы