Присоединяйтесь к нам в Telegram!, здесь всегда актуальный адрес сайта, оперативная поддержка и многое другое!!

>

5.9

iTunes

7.4

iTunes

9.4

1 сезон

1

7.4

2 сезон

7.2

iTunes

7.3

1 сезон

13

6.1

iTunes

8.3

Пиратка

30

ULTIMATE

pack

9.9

Лицензия

ВАЖНО

ИГРА 18+

pack

7.3

RePack

MK11

7.7

RePack

jed

7.8

RePack

fifa19

8.5

RePack

RDR2

RePack

NEED FOR SPEED™ PAYBACK

5 сезон

9 сезон

Бесстыжие 9 сезон

Все сериалы

все сериалы на PB.wtf

RePack

FAR CRY 5

Anonymous, доброй ночи, мы катастрофически не успеваем собрать деньги на оплату серверов, помогите нам пожалуйста 5,10,15р., для нас важна любая помощь . В качестве благодарности мы отключим Вам всю рекламу на сайте (укажите свой ник в строку Ваше имя)!

×
  
Magnet ссылка

Пятьдесят оттенков серого (Сэм Тейлор-Джонсон) [2015, Драма, мелодрама, BDRip-AVC] [Расширенная версия] DUB Лицензия freetor.icu

Пятьдесят оттенков серого через торрент freetor.icu

Размер: 1.5 GB | Добавлен: 6 лет 6 мес. назад | Торрент скачан:798 раз
Смотреть онлайн Пятьдесят оттенков серого | Скачать    Ребята, помогите собрать деньги на оплату серверов!!!

29-05-2015 18:53 Пятьдесят оттенков серого Скачать торрент  

Год выпуска: 2015
Страна: США / Focus Features...
Жанр: Драма, мелодрама
Продолжительность: 02:08:30
Перевод: Дубляж [BD CEE]
Субтитры: Русские (полные + форс.)

Режиссер: Сэм Тейлор-Джонсон / Sam Taylor-Johnson

В ролях: Дакота Джонсон, Джейми Дорнан, Дженнифер Или, Макс Мартини, Люк Граймс, Элоиза Мамфорд, Марша Гей Харден, Рэйчел Скарстен, Рита Ора, Каллум Кит Ренни, Дилан Нил, Эмили Фонда, Энн Мари ДеЛуис, Эндрю Эйрли, Виктор Расук

Описание: В центре сюжета сложные взаимоотношения выпускницы колледжа Анастейши Стил и молодого бизнесмена Кристиана Грея, который убеждает девушку подписать с ним контракт, позволяющий ему фактически контролировать всю ее жизнь. Условия контракта подразумевают также подписание соглашения о неразглашении, в результате чего Грей фактически может делать с Анастейшей все, что ему заблагорассудится.



Качество: BDRip-AVC
Формат: MKV
Видео кодек: H.264
Аудио кодек: AC3
Видео: 960x400 (2,40:1), 23.976 fps, 1198 kbps, 0.130 bit/pixel
Аудио: 48 kHz, AC3 Dolby Digital, 3/2 (L,C,R,l,r) + LFE ch, 384.00 kbps

Релиз группы:
Автор рипа: potroks

Общее
Уникальный идентификатор : 201247393901720671042318690879018339955 (0x9766D6953A15C037A7CC544A10D38E73)
Полное имя : 50.Ottenkov.Serogo.2014.Extended.RUS.BDRip.x264.-HELLYWOOD.mkv
Формат : Matroska
Версия формата : Version 4 / Version 2
Размер файла : 1,50 Гбайт
Продолжительность : 2 ч. 8 м.
Общий поток : 1666 Кбит/сек
Название фильма : Fifty Shades of Grey (2015) [Extended] - HELLYWOOD
Дата кодирования : UTC 2015-05-29 18:33:28
Программа кодирования : mkvmerge v5.9.0 ('On The Loose') built on Dec 15 2012 16:39:58
Библиотека кодирования : libebml v1.3.0 + libmatroska v1.4.0

Видео
Идентификатор : 1
Формат : AVC
Формат/Информация : Advanced Video Codec
Профиль формата : [email protected]
Параметр CABAC формата : Да
Параметр ReFrames формата : 12 кадров
Идентификатор кодека : V_MPEG4/ISO/AVC
Продолжительность : 2 ч. 8 м.
Битрейт : 1198 Кбит/сек
Ширина : 960 пикселей
Высота : 400 пикселей
Соотношение сторон : 2,40:1
Режим частоты кадров : Постоянный
Частота кадров : 23,976 кадра/сек
Цветовое пространство : YUV
Субдискретизация насыщенности : 4:2:0
Битовая глубина : 8 бит
Тип развёртки : Прогрессивная
Бит/(Пиксели*Кадры) : 0.130
Размер потока : 1,12 Гбайт (75%)
Заголовок : potroks
Библиотека кодирования : x264 core 146 r2538 121396c
Настройки программы : cabac=1 / ref=12 / deblock=1:-2:-2 / analyse=0x3:0x113 / me=umh / subme=11 / psy=1 / psy_rd=1.00:0.04 / mixed_ref=1 / me_range=48 / chroma_me=1 / trellis=2 / 8x8dct=1 / cqm=0 / deadzone=21,11 / fast_pskip=0 / chroma_qp_offset=-3 / threads=12 / lookahead_threads=2 / sliced_threads=0 / nr=0 / decimate=0 / interlaced=0 / bluray_compat=0 / constrained_intra=0 / bframes=13 / b_pyramid=2 / b_adapt=2 / b_bias=0 / direct=3 / weightb=1 / open_gop=0 / weightp=2 / keyint=250 / keyint_min=23 / scenecut=40 / intra_refresh=0 / rc_lookahead=150 / rc=2pass / mbtree=1 / bitrate=1198 / ratetol=1.0 / qcomp=0.70 / qpmin=0 / qpmax=69 / qpstep=4 / cplxblur=20.0 / qblur=0.5 / vbv_maxrate=14000 / vbv_bufsize=14000 / nal_hrd=none / filler=0 / ip_ratio=1.35 / aq=3:0.80
Язык : English
Default : Да
Forced : Нет

Аудио
Идентификатор : 2
Формат : AC-3
Формат/Информация : Audio Coding 3
Расширение режима : CM (complete main)
Параметр Endianness формата : Big
Идентификатор кодека : A_AC3
Продолжительность : 2 ч. 8 м.
Вид битрейта : Постоянный
Битрейт : 384 Кбит/сек
Каналы : 6 каналов
Расположение каналов : Front: L C R, Side: L R, LFE
Частота : 48,0 КГц
Битовая глубина : 16 бит
Метод сжатия : С потерями
Размер потока : 353 Мбайт (23%)
Заголовок : Dub | DD 5.1 @ 384 kbps - Blu-Ray CEE
Язык : Russian
Default : Да
Forced : Нет

Текст #1
Идентификатор : 3
Формат : UTF-8
Идентификатор кодека : S_TEXT/UTF8
Идентификатор кодека/Информация : UTF-8 Plain Text
Заголовок : форс.
Язык : Russian
Default : Да
Forced : Нет

Текст #2
Идентификатор : 4
Формат : UTF-8
Идентификатор кодека : S_TEXT/UTF8
Идентификатор кодека/Информация : UTF-8 Plain Text
Заголовок : Blu-Ray
Язык : Russian
Default : Нет
Forced : Нет

Меню
00:00:00.000 : en:00:00:00.000
00:10:25.917 : en:00:10:25.917
00:14:27.158 : en:00:14:27.158
00:20:30.563 : en:00:20:30.563
00:24:04.318 : en:00:24:04.318
00:29:48.578 : en:00:29:48.578
00:35:06.980 : en:00:35:06.980
00:40:17.957 : en:00:40:17.957
00:46:32.748 : en:00:46:32.748
00:50:21.393 : en:00:50:21.393
00:57:04.212 : en:00:57:04.212
01:02:18.985 : en:01:02:18.985
01:06:49.797 : en:01:06:49.797
01:14:27.088 : en:01:14:27.088
01:22:15.264 : en:01:22:15.264
01:31:10.882 : en:01:31:10.882
01:38:13.804 : en:01:38:13.804
01:46:20.165 : en:01:46:20.165
01:53:18.750 : en:01:53:18.750
02:01:41.419 : en:02:01:41.419

freetor.icu



Скачать Пятьдесят оттенков серого через торрент https://pic.kartinco.top/images/11/qay8w_tn.jpg Скачать, смотреть онлайн Пятьдесят оттенков серого бесплантно в хорошем качестве Описание: В центре сюжета сложные взаимоотношения выпускницы колледжа Анастейши Стил и молодого бизнесмена Кристиана Грея, который убеждает ... 8.1 10 16
Info! Золотая раздача, скачанное не засчитывается.
Торрент: Зарегистрирован [2015-05-29 18:53] · скачан: 798 раз
Статус: √ проверено
Размер: 1.5 GB
Как cкачать? Как скачать Пятьдесят оттенков серого через торрент | UTorrent

% Раздел Тема Автор DL S | L
Фильмы 2015 [DVDrip, WEB-DLRip, HDrip] [ 2.18 GB ] Пятьдесят оттенков серого [2015 BDRip-AVC] [Расширенная версия] DUB potroks Скачать
2 | 0
Ultra HD (UHD: 2K, 4K, 8K) — видео сверхвысокой чёткости [ 43.68 GB ] Пятьдесят оттенков серого / Fifty Shades of Grey [2015 BDRemux 2160p] DUB [Расширенная версия] [ BD CEE] bober100 Скачать
1 | 0


Последний раз редактировалось: potroks (2015-05-30 00:34), всего редактировалось 1 раз

28-11-2019 20:33  

Отключить всю рекламу на сайте

29-05-2015 19:42 Пятьдесят оттенков серого Скачать торрент  

potroks, [Расширенная версия] Укажите.freetor.icu



22-05-2020 16:43 Пятьдесят оттенков серого Скачать торрент  

спасибоfreetor.icu



    Дорогой пользователь! Огромная просьба, поблагодарите релизера, оцените раздачу и оставьте свои комментарий, если Вы скачали Пятьдесят оттенков серого через торрент бесплатно!
    Комментировать посты могут только пользователи прошедшие не сложную регистрацию
    Показать сообщения:    

    Пятьдесят оттенков серого через торрент
    Скачать бесплатно Пятьдесят оттенков серого
    Пятьдесят оттенков серого скачать торрент
    Пятьдесят оттенков серого смотреть онлайн
    Cкачать фильм Пятьдесят оттенков серого бесплатно
    Пятьдесят оттенков серого скачать торрент в хорошем качестве
    Пятьдесят оттенков серого смотреть онлайн бесплатно в хорошем качестве


    Вы не можете начинать темы
    Вы не можете отвечать на сообщения
    Вы не можете редактировать свои сообщения
    Вы не можете удалять свои сообщения
    Вы не можете голосовать в опросах
    Вы не можете прикреплять файлы к сообщениям
    Вы можете скачивать файлы