Присоединяйтесь к нам в Telegram!, здесь всегда актуальный адрес сайта, оперативная поддержка и многое другое!!

>

5.9

iTunes

7.4

iTunes

9.4

1 сезон

1

7.4

2 сезон

7.2

iTunes

7.3

1 сезон

13

6.1

iTunes

8.3

GOG

30

ULTIMATE

pack

9.9

Лицензия

ВАЖНО

ИГРА 18+

pack

7.3

RePack

MK11

7.7

RePack

jed

7.8

RePack

fifa19

8.5

RePack

RDR2

RePack

NEED FOR SPEED™ PAYBACK

5 сезон

9 сезон

Бесстыжие 9 сезон

Все сериалы

все сериалы на PB.wtf

RePack

FAR CRY 5

Anonymous, доброе утро, мы катастрофически не успеваем собрать деньги на оплату серверов, помогите нам пожалуйста 5,10,15р., для нас важна любая помощь . В качестве благодарности мы отключим Вам всю рекламу на сайте (укажите свой ник в строку Ваше имя)!

×
  
Magnet ссылка

Особо опасна / Barely Lethal (Кайл Ньюман) [2015 г., боевик, комедия, приключения, WEB-DLRip, Дубляж "iTunes"] freetor.icu

Особо опасна через торрент freetor.icu

Размер: 702 MB | Добавлен: 6 лет 6 мес. назад | Торрент скачан:550 раз
Смотреть онлайн Особо опасна | Скачать    Ребята, помогите собрать деньги на оплату серверов!!!

23-05-2015 15:06 Особо опасна Скачать торрент  

Особо опасна / Barely Lethal
Год выпуска: 2015
Страна: США / RKO Pictures, Hopscotch Pictures, Main Street Films
Жанр: боевик, комедия, приключения
Продолжительность: 01:38:14
Перевод: Дубляж (iTunes)

Режиссер: Кайл Ньюман

IMDB 4.80 (662)


В ролях: Хейли Стайнфелд, Сэмюэл Л. Джексон, Джессика Альба, Софи Тернер, Джейми Кинг, Дав Камерон, Рэйчел Харрис, Томас Манн, Дэн Фоглер, Стив-О

Описание: Меган — спецагент международного класса. В свои шестнадцать она владеет карате, стреляет без промаха и способна обезвредить взрослого вооруженного мужчину. Но Меган мечтает о жизни простого тинейджера — с тусовками и дискотеками. И судьба предоставляет ей такую возможность, но очень скоро супердевушка понимает, что в школе бывает опаснее, чем на на самой сложной спецоперации.

Качество: WEB-DLRip
Формат: AVI
Видео кодек: XviD
Аудио кодек: MP3
Видео: 640x344 (1.86:1), 24.000 fps, DivX Codec 4.x ~861 kbps avg, 0.16 bit/pixel
Аудио: 48 kHz, MPEG Layer 3, 2 ch, ~128.00 kbps avg

скриншот   скриншот   скриншот   скриншот   скриншот   скриншот  

Общее
Полное имя : F:\кино\Особо опасна.2015.WEB-DLRip.700MB.avi
Формат : AVI
Формат/Информация : Audio Video Interleave
Размер файла : 702 Мбайт
Продолжительность : 1 ч. 38 м.
Общий поток : 999 Кбит/сек
Программа кодирования : VirtualDubMod 1.5.10.3 | www.virtualdub-fr.org || (build 2550/release)
Библиотека кодирования : VirtualDubMod build 2550/release

Видео
Идентификатор : 0
Формат : MPEG-4 Visual
Профиль формата : Advanced [email protected]
Параметр BVOP формата : 2
Параметр QPel формата : Нет
Параметр GMC формата : Без точки перехода
Параметр матрицы формата : Default (H.263)
Идентификатор кодека : DIVX
Идентификатор кодека/Информация : Project Mayo
Идентификатор кодека/Подсказка : DivX 4
Продолжительность : 1 ч. 38 м.
Битрейт : 862 Кбит/сек
Ширина : 640 пикселей
Высота : 344 пикселя
Соотношение сторон : 1,85:1
Частота кадров : 24,000 кадра/сек
Цветовое пространство : YUV
Субдискретизация насыщенности : 4:2:0
Битовая глубина : 8 бит
Тип развёртки : Прогрессивная
Метод сжатия : С потерями
Бит/(Пиксели*Кадры) : 0.163
Размер потока : 606 Мбайт (86%)
Библиотека кодирования : XviD 1.2.1 (UTC 2008-12-04)

Аудио
Идентификатор : 1
Формат : MPEG Audio
Версия формата : Version 1
Профиль формата : Layer 3
Режим : Joint stereo
Идентификатор кодека : 55
Идентификатор кодека/Подсказка : MP3
Продолжительность : 1 ч. 38 м.
Вид битрейта : Постоянный
Битрейт : 128 Кбит/сек
Каналы : 2 канала
Частота : 48,0 КГц
Метод сжатия : С потерями
Размер потока : 89,9 Мбайт (13%)
Выравнивание : Соединение по промежуткам
Продолжительность промежутка : 42 мс. (1,00 видеокадр)
Время предзагрузки промежутка : 504 мс.
Библиотека кодирования : LAME3.99r
Настройки программы : -m j -V 4 -q 2 -lowpass 17 -b 128

freetor.icu



Скачать Особо опасна через торрент https://pic1.kartinco.top/images/10/um6ih.jpg Скачать, смотреть онлайн Особо опасна бесплантно в хорошем качестве Описание: Меган — спецагент международного класса. В свои шестнадцать она владеет карате, стреляет без промаха и способна обезвредить ... 9.4 10 23
Торрент: Зарегистрирован [2015-05-23 15:06] · скачан: 550 раз
Статус: √ проверено
Размер: 702 MB
Как cкачать? Как скачать Особо опасна через торрент | UTorrent

% Раздел Тема Автор DL S | L
Фильмы 2014 [DVDrip, WEB-DLRip, HDrip] [ 2.14 GB ] Особо опасна / Barely Lethal [2014 BDRip-AVC] Dub potroks Скачать
1 | 0
Фильмы 2015 [DVDrip, WEB-DLRip, HDrip] [ 1.41 GB ] Особо опасна / Barely Lethal [2015 BDRip ] Twi7ter Скачать
1 | 0
Фильмы 2014 [DVDrip, WEB-DLRip, HDrip] [ 1.46 GB ] Особо опасна / Barely Lethal [2014 BDRip-AVC] Dub potroks Скачать
1 | 0
Фильмы (Blu-ray, BD-Remux, HDDVD) [ 27.61 GB ] Особо опасна / Barely Lethal [2015 Blu-ray ] Бумер Скачать
1 | 0
Фильмы (WEB-DL 720p, 1080p) [ 3.78 GB ] Особо опасна / Barely Lethal [2015 WEB-DL 1080p ] GEKADOL Скачать
1 | 0
Фильмы (WEB-DL 720p, 1080p) [ 2.99 GB ] Особо опасна / Barely Lethal [2015 WEB-DL 720p ] GEKADOL Скачать
1 | 0
Фильмы 2015 [DVDrip, WEB-DLRip, HDrip] [ 1.46 GB ] Особо опасна / Barely Lethal [2015 WEB-DLRip - / ] Ворон Скачать
1 | 0

28-11-2019 20:33  

Отключить всю рекламу на сайте

23-05-2015 17:56 Особо опасна Скачать торрент  

Изображение слабое, звук как в бочке.freetor.icu



29-05-2015 11:24 Особо опасна Скачать торрент  

вчера смотрел на бытовом плеере и звук и картинака хорошиеfreetor.icu



    Дорогой пользователь! Огромная просьба, поблагодарите релизера, оцените раздачу и оставьте свои комментарий, если Вы скачали Особо опасна через торрент бесплатно!
    Комментировать посты могут только пользователи прошедшие не сложную регистрацию
    Показать сообщения:    

    Особо опасна через торрент
    Скачать бесплатно Особо опасна
    Особо опасна скачать торрент
    Особо опасна смотреть онлайн
    Cкачать фильм Особо опасна бесплатно
    Особо опасна скачать торрент в хорошем качестве
    Особо опасна смотреть онлайн бесплатно в хорошем качестве


    Вы не можете начинать темы
    Вы не можете отвечать на сообщения
    Вы не можете редактировать свои сообщения
    Вы не можете удалять свои сообщения
    Вы не можете голосовать в опросах
    Вы не можете прикреплять файлы к сообщениям
    Вы можете скачивать файлы