Присоединяйтесь к нам в Telegram!, здесь всегда актуальный адрес сайта, оперативная поддержка и многое другое!!

>

5.9

iTunes

7.4

iTunes

9.4

1 сезон

1

7.4

2 сезон

7.2

iTunes

7.3

iTunes

13

6.1

iTunes

8.3

Пиратка

30

ULTIMATE

pack

9.9

Лицензия

ВАЖНО

ИГРА 18+

pack

7.3

RePack

MK11

7.7

RePack

jed

7.8

RePack

fifa19

8.5

RePack

RDR2

RePack

NEED FOR SPEED™ PAYBACK

5 сезон

9 сезон

Бесстыжие 9 сезон

Все сериалы

все сериалы на PB.wtf

RePack

FAR CRY 5

Anonymous, доброе утро, мы катастрофически не успеваем собрать деньги на оплату серверов, помогите нам пожалуйста 5,10,15р., для нас важна любая помощь . В качестве благодарности мы отключим Вам всю рекламу на сайте (укажите свой ник в строку Ваше имя)!

×
  
Magnet ссылка

Бесси / Bessie (Ди Риис ) [2015, драма, биография, музыка, HDTVRip, Профессиональный (многоголосый)(Amedia) freetor.icu

Бесси через торрент freetor.icu

Размер: 1.45 GB | Добавлен: 6 лет 6 мес. назад | Торрент скачан:148 раз
Смотреть онлайн Бесси | Скачать    Ребята, помогите собрать деньги на оплату серверов!!!

19-05-2015 13:44 Бесси Скачать торрент  


Бесси / Bessie


ИНФОРМАЦИЯ:
Год выпуска:2015
Страна: США
Жанр: драма, биография, музыка
Продолжительность: 01:47:16
Перевод: Профессиональный (многоголосый)(Amedia)
Режиссер: Ди Риис

В Ролях:


Куин Латифа (Bessie Smith), Майкл Кеннет Уильямс (Jack Gee), Брайан Гринберг (John Hammond), Тика Самптер (Lucille), Оливер Платт (Carl Van Vechten), Кэнди Александр (Viola), Майк Эппс (Richard), Моник (Ma Rainey), Чарльз С. Даттон (William «Pa» Rainey), Тори Киттлз (Clarence), Мари Бурк (Etta Johnson), Jessejames Locorriere (Vanity Fair Editor)

Описание:
История легендарной блюз исполнительницы, Бесси Смит, которая поднялась к славе в 1920-х и 30-х годах.

  • Мировая премьера:16 мая 2015

    ТЕХ.ДАННЫЕ:
    Качество: HDTVRip
    Формат: AVI
    Видео кодек: XviD
    Аудио кодек: AC3
    Видео: XviD, 720x400 (16:9), 1663 kbps, 25 fps, 0,231 bpp
    Аудио: AC3 / 2.0 / 48 kHz / 192 kbps / 16 bit



    Код:

    General
    Complete name                            : D:\Торенты\Bessie.2015.P.HDTVRip.1.46GB.avi
    Format                                   : AVI
    Format/Info                              : Audio Video Interleave
    File size                                : 1.45 GiB
    Duration                                 : 1h 47mn
    Overall bit rate                         : 1 942 Kbps
    Writing application                      : VirtualDubMod 1.5.10.2 (build 2540/release)
    Writing library                          : VirtualDubMod build 2540/release

    Video
    ID                                       : 0
    Format                                   : MPEG-4 Visual
    Format profile                           : Advanced [email protected]
    Format settings, BVOP                    : 2
    Format settings, QPel                    : No
    Format settings, GMC                     : No warppoints
    Format settings, Matrix                  : Default (MPEG)
    Codec ID                                 : XVID
    Codec ID/Hint                            : XviD
    Duration                                 : 1h 47mn
    Bit rate                                 : 1 664 Kbps
    Width                                    : 720 pixels
    Height                                   : 400 pixels
    Display aspect ratio                     : 16:9
    Frame rate                               : 25.000 fps
    Color space                              : YUV
    Chroma subsampling                       : 4:2:0
    Bit depth                                : 8 bits
    Scan type                                : Progressive
    Compression mode                         : Lossy
    Bits/(Pixel*Frame)                       : 0.231
    Stream size                              : 1.25 GiB (86%)
    Writing library                          : XviD 1.2.1 (UTC 2008-12-04)

    Audio
    ID                                       : 1
    Format                                   : AC-3
    Format/Info                              : Audio Coding 3
    Mode extension                           : CM (complete main)
    Codec ID                                 : 2000
    Duration                                 : 1h 47mn
    Bit rate mode                            : Constant
    Bit rate                                 : 192 Kbps
    Channel(s)                               : 2 channels
    Channel positions                        : Front: L R
    Sampling rate                            : 48.0 KHz
    Bit depth                                : 16 bits
    Compression mode                         : Lossy
    Stream size                              : 147 MiB (10%)
    Alignment                                : Split accross interleaves

    Скриншоты:


    © Оформление by Ворон
    freetor.icu



  • Скачать Бесси через торрент https://pic1.kartinco.top/images/61/ordi9.jpg Скачать, смотреть онлайн Бесси бесплантно в хорошем качестве Описание: История легендарной блюз исполнительницы, Бесси Смит, которая поднялась к славе в 1920-х и 30-х годах. Мировая премьера:16 мая ... 8.9 10 9
    Торрент: Зарегистрирован [2015-05-19 13:44] · скачан: 148 раз
    Статус: √ проверено
    Размер: 1.45 GB
    Как cкачать? Как скачать Бесси через торрент | UTorrent

    % Раздел Тема Автор DL S | L
    Фильмы (WEB-DL 720p, 1080p) [ 5.88 GB ] Бесси / Bessie [2015 биография музыка HDTV 1080p Ворон Скачать
    1 | 0

    28-11-2019 20:33  

    Отключить всю рекламу на сайте

      Дорогой пользователь! Огромная просьба, поблагодарите релизера, оцените раздачу и оставьте свои комментарий, если Вы скачали Бесси через торрент бесплатно!
      Комментировать посты могут только пользователи прошедшие не сложную регистрацию
      Показать сообщения:    

      Бесси через торрент
      Скачать бесплатно Бесси
      Бесси скачать торрент
      Бесси смотреть онлайн
      Cкачать фильм Бесси бесплатно
      Бесси скачать торрент в хорошем качестве
      Бесси смотреть онлайн бесплатно в хорошем качестве


      Вы не можете начинать темы
      Вы не можете отвечать на сообщения
      Вы не можете редактировать свои сообщения
      Вы не можете удалять свои сообщения
      Вы не можете голосовать в опросах
      Вы не можете прикреплять файлы к сообщениям
      Вы можете скачивать файлы