Присоединяйтесь к нам в Telegram!, здесь всегда актуальный адрес сайта, оперативная поддержка и многое другое!!

>

5.9

iTunes

7.4

iTunes

9.4

1 сезон

1

7.4

2 сезон

7.2

iTunes

7.3

1 сезон

13

6.1

iTunes

8.3

GOG

30

ULTIMATE

pack

9.9

Лицензия

ВАЖНО

ИГРА 18+

pack

7.3

RePack

MK11

7.7

RePack

jed

7.8

RePack

fifa19

8.5

RePack

RDR2

RePack

NEED FOR SPEED™ PAYBACK

5 сезон

9 сезон

Бесстыжие 9 сезон

Все сериалы

все сериалы на PB.wtf

RePack

FAR CRY 5

Anonymous, доброй ночи, мы катастрофически не успеваем собрать деньги на оплату серверов, помогите нам пожалуйста 5,10,15р., для нас важна любая помощь . В качестве благодарности мы отключим Вам всю рекламу на сайте (укажите свой ник в строку Ваше имя)!

×
  
Magnet ссылка

Модная штучка / After the Ball (Шон Гэррити ) [2015, комедия, WEB-DLRip, Дубляж - Лицензия / iTunes] freetor.icu

Модная штучка через торрент freetor.icu

Размер: 1.46 GB | Добавлен: 6 лет 6 мес. назад | Торрент скачан:1124 раза
Смотреть онлайн Модная штучка | Скачать    Ребята, помогите собрать деньги на оплату серверов!!!

05-05-2015 14:59 Модная штучка Скачать торрент  


Модная штучка / After the Ball
«Золушки всегда в тренде»

ИНФОРМАЦИЯ:
Год выпуска:2015
Страна: Канада
Жанр: комедия
Продолжительность: 01:37:48
Перевод: Дубляж - [Лицензия / iTunes]
Режиссер: Шон Гэррити

В Ролях:


Портия Даблдэй (Kate / Nate), Марк-Андре Гронден (Daniel), Крис Нот (Lee), Лорен Холли (Elise), Натали Крилл (Tannis), Анна Хопкинс (Simone), Давид Микаэль (Maurice), Мими Кузык (Bella), Карло Рота (Richard), Колин Мохри (Colin), Майкл Манчини (Receptionist), Лола Таш (Polly)

Описание:
Мечта Кейт - стать дизайнером модного дома. Но несмотря на то, что она обладает ярким талантом, она не может получить эту работу... Никто не доверяет дочери гуру розничных магазинов готовой одежды, «навеянной» теми самыми дизайнерами «Высокой моды», на которых так хочет работать Кейт. Кто же захочет иметь шпиона при рождении новых фасонов и горячих трендов? И тогда она пускается на хитрость, которая приводит ее к успеху и не только в карьере...

  • Мировая премьера:27 февраля 2015

    ТЕХ.ДАННЫЕ:
    Качество: WEB-DLRip
    Формат: AVI
    Видео кодек: XviD
    Аудио кодек: AC3
    Видео: XviD, 720x384 (1.875), 1739 kbps, 25 fps, 0,239 bpp
    Аудио: AC3 / 5.1 / 48 kHz / 384 kbps / 16 bit



    Код:

    General
    Complete name                            : D:\Торенты\After.the.Ball.2015.D.WEB-DLRip..avi
    Format                                   : AVI
    Format/Info                              : Audio Video Interleave
    File size                                : 1.46 GiB
    Duration                                 : 1h 37mn
    Overall bit rate                         : 2 133 Kbps
    Writing application                      : VirtualDubMod 1.5.10.3 | www.virtualdub-fr.org || (build 2550/release)
    Writing library                          : VirtualDubMod build 2550/release

    Video
    ID                                       : 0
    Format                                   : MPEG-4 Visual
    Format profile                           : Advanced [email protected]
    Format settings, BVOP                    : 2
    Format settings, QPel                    : No
    Format settings, GMC                     : No warppoints
    Format settings, Matrix                  : Default (MPEG)
    Muxing mode                              : Packed bitstream
    Codec ID                                 : XVID
    Codec ID/Hint                            : XviD
    Duration                                 : 1h 37mn
    Bit rate                                 :  1739 Kbps
    Width                                    : 720 pixels
    Height                                   : 384 pixels
    Display aspect ratio                     : 1.875
    Frame rate                               : 25.000 fps
    Color space                              : YUV
    Chroma subsampling                       : 4:2:0
    Bit depth                                : 8 bits
    Scan type                                : Progressive
    Compression mode                         : Lossy
    Bits/(Pixel*Frame)                       : 0.239
    Stream size                              : 1.13 GiB (78%)
    Writing library                          : XviD 73

    Audio
    ID                                       : 1
    Format                                   : AC-3
    Format/Info                              : Audio Coding 3
    Mode extension                           : CM (complete main)
    Codec ID                                 : 2000
    Duration                                 : 1h 37mn
    Bit rate mode                            : Constant
    Bit rate                                 : 384 Kbps
    Channel(s)                               : 6 channels
    Channel positions                        : Front: L C R, Side: L R, LFE
    Sampling rate                            : 48.0 KHz
    Bit depth                                : 16 bits
    Compression mode                         : Lossy
    Stream size                              : 269 MiB (18%)
    Alignment                                : Split accross interleaves

    Скриншоты:


    © Оформление by Ворон
    freetor.icu



  • Скачать Модная штучка через торрент https://pic1.kartinco.top/images/61/ordi9.jpg Скачать, смотреть онлайн Модная штучка бесплантно в хорошем качестве Описание: Мечта Кейт - стать дизайнером модного дома. Но несмотря на то, что она обладает ярким талантом, она не может получить эту ... 9.9 10 23
    Торрент: Зарегистрирован [2015-05-05 14:59] · скачан: 1 124 раз
    Статус: √ проверено
    Размер: 1.46 GB
    Как cкачать? Как скачать Модная штучка через торрент | UTorrent

    % Раздел Тема Автор DL S | L
    Фильмы (WEB-DL 720p, 1080p) [ 3.89 GB ] Модная штучка / After the Ball [2015 WEB-DL 1080p - / ] Ворон Скачать
    1 | 0

    28-11-2019 20:33  

    Отключить всю рекламу на сайте

    05-05-2015 17:05 Модная штучка Скачать торрент  

    как фильм?freetor.icu



    10-05-2015 20:31 Модная штучка Скачать торрент  

    Как сам, то ?freetor.icu



    18-05-2015 03:56 Модная штучка Скачать торрент  

    на предпоследнем скрине Задорнов)) sarcasticfreetor.icu



      Дорогой пользователь! Огромная просьба, поблагодарите релизера, оцените раздачу и оставьте свои комментарий, если Вы скачали Модная штучка через торрент бесплатно!
      Комментировать посты могут только пользователи прошедшие не сложную регистрацию
      Показать сообщения:    

      Модная штучка через торрент
      Скачать бесплатно Модная штучка
      Модная штучка скачать торрент
      Модная штучка смотреть онлайн
      Cкачать фильм Модная штучка бесплатно
      Модная штучка скачать торрент в хорошем качестве
      Модная штучка смотреть онлайн бесплатно в хорошем качестве


      Вы не можете начинать темы
      Вы не можете отвечать на сообщения
      Вы не можете редактировать свои сообщения
      Вы не можете удалять свои сообщения
      Вы не можете голосовать в опросах
      Вы не можете прикреплять файлы к сообщениям
      Вы можете скачивать файлы