Присоединяйтесь к нам в Telegram!, здесь всегда актуальный адрес сайта, оперативная поддержка и многое другое!!

>

5.9

iTunes

7.4

iTunes

9.4

1 сезон

1

7.4

2 сезон

7.2

iTunes

7.3

1 сезон

13

6.1

iTunes

8.3

GOG

30

ULTIMATE

pack

9.9

Лицензия

ВАЖНО

ИГРА 18+

pack

7.3

RePack

MK11

7.7

RePack

jed

7.8

RePack

fifa19

8.5

RePack

RDR2

RePack

NEED FOR SPEED™ PAYBACK

5 сезон

9 сезон

Бесстыжие 9 сезон

Все сериалы

все сериалы на PB.wtf

RePack

FAR CRY 5

Anonymous, доброй ночи, мы катастрофически не успеваем собрать деньги на оплату серверов, помогите нам пожалуйста 5,10,15р., для нас важна любая помощь . В качестве благодарности мы отключим Вам всю рекламу на сайте (укажите свой ник в строку Ваше имя)!

×
  
Magnet ссылка

Пятьдесят оттенков серого (Сэм Тейлор-Джонсон / Sam Taylor-Johnson) [2015, США, Драма, мелодрама, WEB-DLRip-AVC,] Дубляж] iTunes От R.G. PiratFilms freetor.icu

Пятьдесят оттенков серого через торрент freetor.icu

Размер: 1.41 GB | Добавлен: 6 лет 7 мес. назад | Торрент скачан:1052 раза
Смотреть онлайн Пятьдесят оттенков серого | Скачать    Ребята, помогите собрать деньги на оплату серверов!!!

10-04-2015 19:45 Пятьдесят оттенков серого Скачать торрент  




Fifty Shades of Grey
«Мистер Грей ждет вас»


Год выпуска: 2015
Страна: США
Жанр: Драма, мелодрама
Продолжительность: 02:05:12
Перевод: Дубляж - [Лицензия / iTunes]
Субтитры: Нет
Режиссер: Сэм Тейлор-Джонсон / Sam Taylor-Johnson
В ролях:

Джейми Дорнан (Christian Grey), Дакота Джонсон (Anastasia Steele), Люк Граймс (Elliot Grey), Виктор Расук (José), Элоиза Мамфорд (Kate), Марша Гей Харден (Mrs. Grey), Рита Ора (Mia Grey), Макс Мартини (Taylor), Каллум Кит Ренни (Ray), Дженнифер Или (Carla), Дилан Нил (Bob), Эндрю Эйрли (Mr. Grey)

Описание:
Анастейша Стил - скромная студентка, живущая вместе с близкой подругой-сокурсницей Кейт. За неделю до выпускного в университете, Анастейша, по просьбе заболевшей Кейт заменить её, берёт интервью у молодого красавца-миллиардера Кристиана Грея. Интервью складывается не очень удачно, и Анастейша не думает, что они когда-либо встретятся вновь. Неожиданно Грей появляется в хозяйственном магазине, где девушка работает продавцом. Их знакомство продолжается, и Анастейша постепенно узнаёт о тайных сексуальных увлечениях богача...
Мировая премьера: 9 февраля 2015
    Качество: WEB-DLRip-AVC (исх. WEB-DLRip 1080р)
    Формат: MKV
    Видео кодек: AVC
    Аудио кодек:AC3
    Видео: AVC, 1024x426 (2.40:1), 1223 kbps, 23,976 fps, 0,117 bpp
    Аудио: русский / AC3 / 5.1 / 48 kHz / 384 kbps / 16 bit ||


Код:

---[Information] [10.04.2015 17:34:31] x264 [info]: frame I:1542  Avg QP:13.11  size: 49675  PSNR Mean Y:50.47 U:53.68 V:53.19 Avg:51.20 Global:50.91
---[Information] [10.04.2015 17:34:31] x264 [info]: frame P:40746 Avg QP:15.81  size: 13385  PSNR Mean Y:48.05 U:52.55 V:51.84 Avg:48.96 Global:48.57
---[Information] [10.04.2015 17:34:31] x264 [info]: frame B:137830 Avg QP:17.82  size:  3814  PSNR Mean Y:47.67 U:52.95 V:52.26 Avg:48.65 Global:48.21
---[Information] [10.04.2015 17:34:31] x264 [info]: consecutive B-frames:  1.2%  1.2%  2.2% 63.6%  7.6%  9.9%  2.9% 10.2%  0.4%  0.4%  0.3%

Код:

General
Unique ID                                : 244466675450384912266764496259618204836 (0xB7EA91AE464B9ABEB1A4647D4A906CA4)
Complete name                            : D:\рипы От R.G. PiratFilms\50.0ttenk0v.Ser0go.2015.WEB DLRip-AVC.by.White Smoke.R.G.PiratFilms.mkv
Format                                   : Matroska
Format version                           : Version 4 / Version 2
File size                                : 1.41 GiB
Duration                                 : 2h 5mn
Overall bit rate                         : 1 608 Kbps
Movie name                               : 50.0ttenk0v.Ser0go.2015.WEB DLRip-AVC.by.White Smoke.R.G.PiratFilms.mkv
Encoded date                             : UTC 2015-04-10 18:03:50
Writing application                      : mkvmerge v7.6.0 ('Garden of Dreams') 64bit built on Feb  8 2015 13:04:34
Writing library                          : libebml v1.3.1 + libmatroska v1.4.2
DURATION                                 : 02:05:12.448000000
NUMBER_OF_FRAMES                         : 234764
NUMBER_OF_BYTES                          : 360597504
_STATISTICS_WRITING_APP                  : mkvmerge v7.6.0 ('Garden of Dreams') 64bit built on Feb  8 2015 13:04:34
_STATISTICS_WRITING_DATE_UTC             : 2015-04-10 18:03:50
_STATISTICS_TAGS                         : BPS DURATION NUMBER_OF_FRAMES NUMBER_OF_BYTES

Video
ID                                       : 1
Format                                   : AVC
Format/Info                              : Advanced Video Codec
Format profile                           : [email protected]
Format settings, CABAC                   : Yes
Format settings, ReFrames                : 12 frames
Codec ID                                 : V_MPEG4/ISO/AVC
Duration                                 : 2h 5mn
Bit rate                                 : 1 223 Kbps
Width                                    : 1 024 pixels
Height                                   : 426 pixels
Display aspect ratio                     : 2.40:1
Frame rate                               : 23.976 fps
Color space                              : YUV
Chroma subsampling                       : 4:2:0
Bit depth                                : 8 bits
Scan type                                : Progressive
Bits/(Pixel*Frame)                       : 0.117
Stream size                              : 1.04 GiB (74%)
Writing library                          : x264 core 146 r2538 121396c
Encoding settings                        : cabac=1 / ref=12 / deblock=1:-3:-3 / analyse=0x3:0x113 / me=umh / subme=9 / psy=1 / psy_rd=1.00:0.00 / mixed_ref=1 / me_range=32 / chroma_me=1 / trellis=1 / 8x8dct=1 / cqm=0 / deadzone=21,11 / fast_pskip=1 / chroma_qp_offset=-2 / threads=12 / lookahead_threads=3 / sliced_threads=0 / nr=0 / decimate=1 / interlaced=0 / bluray_compat=0 / constrained_intra=0 / bframes=10 / b_pyramid=2 / b_adapt=2 / b_bias=10 / direct=1 / weightb=0 / open_gop=0 / weightp=2 / keyint=240 / keyint_min=23 / scenecut=40 / intra_refresh=0 / rc_lookahead=40 / rc=2pass / mbtree=1 / bitrate=1223 / ratetol=1.0 / qcomp=0.65 / qpmin=0 / qpmax=69 / qpstep=4 / cplxblur=20.0 / qblur=0.5 / ip_ratio=1.40 / aq=1:1.00
Language                                 : English
Default                                  : Yes
Forced                                   : No
DURATION                                 : 02:05:12.422000000
NUMBER_OF_FRAMES                         : 180118
NUMBER_OF_BYTES                          : 1147718012
_STATISTICS_WRITING_APP                  : mkvmerge v7.6.0 ('Garden of Dreams') 64bit built on Feb  8 2015 13:04:34
_STATISTICS_WRITING_DATE_UTC             : 2015-04-10 18:03:50
_STATISTICS_TAGS                         : BPS DURATION NUMBER_OF_FRAMES NUMBER_OF_BYTES

Audio
ID                                       : 2
Format                                   : AC-3
Format/Info                              : Audio Coding 3
Mode extension                           : CM (complete main)
Codec ID                                 : A_AC3
Duration                                 : 2h 5mn
Bit rate mode                            : Constant
Bit rate                                 : 384 Kbps
Channel(s)                               : 6 channels
Channel positions                        : Front: L C R, Side: L R, LFE
Sampling rate                            : 48.0 KHz
Bit depth                                : 16 bits
Compression mode                         : Lossy
Stream size                              : 344 MiB (24%)
Language                                 : Russian
Default                                  : No
Forced                                   : No

freetor.icu



Скачать Пятьдесят оттенков серого через торрент http://i5.imageban.ru/out/2015/01/28/01859fe8d4e21166f16a4c733dadb0aa.gif Скачать, смотреть онлайн Пятьдесят оттенков серого бесплантно в хорошем качестве Описание: Анастейша Стил - скромная студентка, живущая вместе с близкой подругой-сокурсницей Кейт. За неделю до выпускного в университете, ... 6.4 10 30
Info! Золотая раздача, скачанное не засчитывается.
Торрент: Зарегистрирован [2015-04-10 19:45] · скачан: 1 052 раз
Статус: √ проверено
Размер: 1.41 GB
Как cкачать? Как скачать Пятьдесят оттенков серого через торрент | UTorrent



Последний раз редактировалось: White Smoke (2015-04-10 20:38), всего редактировалось 1 раз

28-11-2019 20:33  

Отключить всю рекламу на сайте

10-04-2015 20:04 Пятьдесят оттенков серого Скачать торрент  

а фильм никакой!!!9 .5 недель лучше пересмотретьfreetor.icu



10-04-2015 22:33 Пятьдесят оттенков серого Скачать торрент  

пиндосное freetor.icu



11-04-2015 18:11 Пятьдесят оттенков серого Скачать торрент  

freetor.icu



24-04-2015 11:14 Пятьдесят оттенков серого Скачать торрент  

Фильм получился убогий, книгу не читала,но уверена она не лучше. Из ряда Сумерек, рассчитанных на аудиторию из пятнадцатилетних школьниц. Огромная куча тупых сопливых реплик, которые смешно слушать. Вобщем полный провал.freetor.icu



25-04-2015 15:30 Пятьдесят оттенков серого Скачать торрент  

Говно!!!freetor.icu



03-05-2015 21:39 Пятьдесят оттенков серого Скачать торрент  

После таких отзывов даже засомневался... Но - качну! freetor.icu



    Дорогой пользователь! Огромная просьба, поблагодарите релизера, оцените раздачу и оставьте свои комментарий, если Вы скачали Пятьдесят оттенков серого через торрент бесплатно!
    Комментировать посты могут только пользователи прошедшие не сложную регистрацию
    Показать сообщения:    

    Пятьдесят оттенков серого через торрент
    Скачать бесплатно Пятьдесят оттенков серого
    Пятьдесят оттенков серого скачать торрент
    Пятьдесят оттенков серого смотреть онлайн
    Cкачать фильм Пятьдесят оттенков серого бесплатно
    Пятьдесят оттенков серого скачать торрент в хорошем качестве
    Пятьдесят оттенков серого смотреть онлайн бесплатно в хорошем качестве


    Вы не можете начинать темы
    Вы не можете отвечать на сообщения
    Вы не можете редактировать свои сообщения
    Вы не можете удалять свои сообщения
    Вы не можете голосовать в опросах
    Вы не можете прикреплять файлы к сообщениям
    Вы можете скачивать файлы