>

8.4

Хороший звук

6.1

MVO

6.4

Line & MVO

1

7.4

1 сезон

6.8

iTunes

7.2

1 сезон

13

6.7

1 сезон

8.3

RePack

30

Deluxe

pack

9.9

Лицензия

ВАЖНО

ИГРА 18+

pack

7.3

RePack

MK11

7.7

RePack

jed

7.8

RePack

fifa19

8.5

RePack

RDR2

RePack

NEED FOR SPEED™ PAYBACK

4 сезон

9 сезон

Бесстыжие 9 сезон

Все сериалы

все сериалы на PB.wtf

RePack

FAR CRY 5

Anonymous, доброе утро, мы катастрофически не успеваем собрать деньги на оплату серверов, помогите нам пожалуйста 5,10,15р., для нас важна любая помощь . В качестве благодарности мы отключим Вам всю рекламу на сайте (укажите свой ник в строку Ваше имя)!

×
  
Magnet ссылка

Бэйби / Baby (Нирадж Пандеу ) [2015, боевик, триллер, криминал, DVDRip, DVO] freetor.icu

Бэйби через торрент freetor.icu

Размер: 1.46 GB | Добавлен: 6 лет 5 мес. назад | Торрент скачан:101 раз
Смотреть онлайн Бэйби | Скачать    Ребята, помогите собрать деньги на оплату серверов!!!

29-03-2015 10:47 Бэйби Скачать торрент  


Бэйби / Baby
«History Is Made By Those Who Give A Damn!»

ИНФОРМАЦИЯ:
Год выпуска:2015
Страна: Индия
Жанр: боевик, триллер, криминал, детектив
Продолжительность: 02:39:51
Перевод: Любительский (двухголосый) [den904, DeadSno]
Режиссер: Нирадж Пандеу

В Ролях:


Kerem Sarikaya (Torturer), Захари Соффин (ATC Officer), Рана Даггубати (Jai), Дэнни Дензонгпа (Firoz), Анупам Кхер (Shuklaji), Акшай Кумар (Ajay Singh Rathore), Кэй Кэй Менон (Bilal), Рашид Наз (Mohammad), Таапси Панну, Сушант Сингх, Madhurima Tuli (Ajay's Wife), Каран Вахи

ОПИСАНИЕ:
Страна постоянно под угрозой террористических атак. Государство не может обеспечит защиту, а простые люди делают все, чтобы защитить страну. Аджай - такой человек. Он офицер секретной службы и собирается разоблачить террористическую группировку, которая как спрут проникла своими шупальцами по всей стране и вселяет ужас мирному населению.

  • Мировая премьера:23 января 2015

    ТЕХ.ДАННЫЕ:
    Качество: DVDRip
    Формат: AVI
    Видео кодек: XviD
    Аудио кодек: MP3
    Видео: XviD, 704x304 (2.35:1), 1169 kbps, 23,976 fps, 0,218 bpp
    Аудио: MP3 / 2.0 / 44 kHz / 128 kbps /



    Код:

    General
    Complete name                            : D:\Торенты\Malyshka.2015.DVDRip.XviD.Kolobok-soso4eg\Malyshka.2015.DVDRip.XviD.Kolobok-soso4eg.avi
    Format                                   : AVI
    Format/Info                              : Audio Video Interleave
    File size                                : 1.46 GiB
    Duration                                 : 2h 39mn
    Overall bit rate                         : 1 307 Kbps
    Movie name                               : Baby.2015.DVDRip.XviD.Kolobok-soso4eg
    Director                                 : soso4eg
    Writing application                      : VirtualDubMod 1.5.10.3 | www.virtualdub-fr.org || (build 2550/release)
    Original source form/Name                : Hindi

    Video
    ID                                       : 0
    Format                                   : MPEG-4 Visual
    Format profile                           : Advanced Simple@L5
    Format settings, BVOP                    : 1
    Format settings, QPel                    : No
    Format settings, GMC                     : No warppoints
    Format settings, Matrix                  : Default (H.263)
    Codec ID                                 : XVID
    Codec ID/Hint                            : XviD
    Duration                                 : 2h 39mn
    Bit rate                                 : 1169  Kbps
    Width                                    : 704 pixels
    Height                                   : 304 pixels
    Display aspect ratio                     : 2.35:1
    Frame rate                               : 23.976 fps
    Color space                              : YUV
    Chroma subsampling                       : 4:2:0
    Bit depth                                : 8 bits
    Scan type                                : Progressive
    Compression mode                         : Lossy
    Bits/(Pixel*Frame)                       : 0.218
    Stream size                              : 1.25 GiB (86%)
    Writing library                          : XviD 1.2.1 (UTC 2008-12-04)

    Audio
    ID                                       : 1
    Format                                   : MPEG Audio
    Format version                           : Version 1
    Format profile                           : Layer 3
    Mode                                     : Joint stereo
    Codec ID                                 : 55
    Codec ID/Hint                            : MP3
    Duration                                 : 2h 39mn
    Bit rate mode                            : Constant
    Bit rate                                 : 128 Kbps
    Channel(s)                               : 2 channels
    Sampling rate                            : 44.1 KHz
    Compression mode                         : Lossy
    Stream size                              : 146 MiB (10%)
    Alignment                                : Split accross interleaves
    Writing library                          : LAME3.90.3ЄЄЄЄЄЄЄЄЄЄ

    Скриншоты:


    © Оформление by Ворон
    freetor.icu



  • Скачать Бэйби через торрент https://pic1.kartinco.top/images/61/ordi9.jpg Скачать, смотреть онлайн Бэйби бесплантно в хорошем качестве Е:Страна постоянно под угрозой террористических атак. Государство не может обеспечит защиту, а простые люди делают все, чтобы защитить ... 8.8 10 9
    Торрент: Зарегистрирован [2015-03-29 10:47] · скачан: 101 раз
    Статус: √ проверено
    Размер: 1.46 GB
    Как cкачать? Как скачать Бэйби через торрент | UTorrent

    % Раздел Тема Автор DL S | L
    Индийское кино [ 10.13 GB ] Бэйби / Baby [2015 BDRip 1080p Любительский многоголосый] Бумер Скачать
    1 | 0

    28-11-2019 20:33  

    Отключить всю рекламу на сайте

    29-03-2015 11:37 Бэйби Скачать торрент  

    Почему я не хочу это смотреть?Как избавиться от стереотипа"Индийское Кино"?С их танцами,песнями,убийствами между танцами и прочими-"Я твой брат,а я твой-сестра,мы не виделись 100500 лет!......"freetor.icu



      Дорогой пользователь! Огромная просьба, поблагодарите релизера, оцените раздачу и оставьте свои комментарий, если Вы скачали Бэйби через торрент бесплатно!
      Комментировать посты могут только пользователи прошедшие не сложную регистрацию
      Показать сообщения:    

      Бэйби через торрент
      Скачать бесплатно Бэйби
      Бэйби скачать торрент
      Бэйби смотреть онлайн
      Cкачать фильм Бэйби бесплатно
      Бэйби скачать торрент в хорошем качестве
      Бэйби смотреть онлайн бесплатно в хорошем качестве


      Вы не можете начинать темы
      Вы не можете отвечать на сообщения
      Вы не можете редактировать свои сообщения
      Вы не можете удалять свои сообщения
      Вы не можете голосовать в опросах
      Вы не можете прикреплять файлы к сообщениям
      Вы можете скачивать файлы