>

8.4

Хороший звук

6.1

MVO

6.4

Line & MVO

1

7.4

1 сезон

6.8

iTunes

7.2

1 сезон

13

6.7

1 сезон

8.3

RePack

30

Deluxe

pack

9.9

Лицензия

ВАЖНО

ИГРА 18+

pack

7.3

RePack

MK11

7.7

RePack

jed

7.8

RePack

fifa19

8.5

RePack

RDR2

RePack

NEED FOR SPEED™ PAYBACK

4 сезон

9 сезон

Бесстыжие 9 сезон

Все сериалы

все сериалы на PB.wtf

RePack

FAR CRY 5

Anonymous, доброе утро, мы катастрофически не успеваем собрать деньги на оплату серверов, помогите нам пожалуйста 5,10,15р., для нас важна любая помощь . В качестве благодарности мы отключим Вам всю рекламу на сайте (укажите свой ник в строку Ваше имя)!

×
  
Magnet ссылка

Дети войны / Children of War (Mrityunjay Devvrat ) [2014, драма, военный, история, DVDRip, Любительский (двухголосый) [den904, DeadSno] freetor.icu

Дети войны через торрент freetor.icu

Размер: 1.37 GB | Добавлен: 6 лет 5 мес. назад | Торрент скачан:27 раз
Смотреть онлайн Дети войны | Скачать    Ребята, помогите собрать деньги на оплату серверов!!!

20-03-2015 20:51 Дети войны Скачать торрент  


Дети войны / Children of War


ИНФОРМАЦИЯ:
Год выпуска:2014
Страна: Индия
Жанр: драма, военный, история
Продолжительность: 02:38:34
Перевод: Любительский (двухголосый) [den904, DeadSno]
Режиссер: Mrityunjay Devvrat

В Ролях:


Фарук Шайх (Mojid), Виктор Банерджи (Baba), Паван Малхотра (Malik), Индранеил Сенгупта (Amir), Райма Сен (Fida), Тилотама Шом (Bhitika), Riddhi Sen (Rafiq), Руча Инамдар (Kausar), Shatrunjay Devvrat (Young Aamir), Джой Сенгупта (Sudipto), Джей Бансал (Pak Officer), Пурненду Бхаттачария (Abbu)

ОПИСАНИЕ:
26 марта 1971 года. Начало Войны за независимость Бангладеша против Пакистана, иными словами, грядущего ада длительностью ровно 9 месяцев. Этот период является самым кровавым и жестоким за всю историю Бангладеша, изменивший и повлиявший на жизнь каждого его жителя. Ведь именно тогда, были рождены они - дети войны.

  • Мировая премьера:16 мая 2014

    ТЕХ.ДАННЫЕ:
    Качество: DVDRip
    Формат: AVI
    Видео кодек: XviD
    Аудио кодек: AC3
    Видео: XviD, 720x304 (2.35:1), 1200 kbps, 23,976 fps, 0,189 bpp
    Аудио: AC3 / 2.0 / 48 kHz / 192 kbps / 16 bit


    Цитата:

    Награды:

    - «Экстраординарный Фильм» - River to River Film Festival, Флоренция Италия, 2014 год.
    - «Экстраординарный Фильм» - River to River Film Festival, Рим, Италия, 2014 год.
    - «Выбор Режиссёров» - представлен Хансалом Мехтой – MAMI, 2014 год.
    - Официальный выбор за «прорыв всех границ» – IFFI, Гоа, 2014 год (Международный Кинофестиваль Индии).
    - Лучшая операторская работа - Jagran International Film Festival, 2014 год.
    - Лучший отрицательный военачальник - Jagran International Film Festival, 2014 год.
    - "Лучшее актуальное содержание" - Global Bioscope Film Festival, Дели, 2014 год.


    Код:

    General
    Complete name                            : D:\Торенты\Children of War.2014. DVDRip.avi
    Format                                   : AVI
    Format/Info                              : Audio Video Interleave
    File size                                : 1.37 GiB
    Duration                                 : 2h 38mn
    Overall bit rate                         : 1 241 Kbps
    Writing application                      : VirtualDubMod 1.5.10.3 | www.virtualdub-fr.org || (build 2550/release)
    Writing library                          : VirtualDubMod build 2550/release

    Video
    ID                                       : 0
    Format                                   : MPEG-4 Visual
    Format profile                           : Advanced Simple@L5
    Format settings, BVOP                    : 2
    Format settings, QPel                    : No
    Format settings, GMC                     : No warppoints
    Format settings, Matrix                  : Default (MPEG)
    Codec ID                                 : XVID
    Codec ID/Hint                            : XviD
    Duration                                 : 2h 38mn
    Bit rate                                 : 1200 Kbps
    Width                                    : 720 pixels
    Height                                   : 304 pixels
    Display aspect ratio                     : 2.35:1
    Frame rate                               : 23.976 fps
    Color space                              : YUV
    Chroma subsampling                       : 4:2:0
    Bit depth                                : 8 bits
    Scan type                                : Progressive
    Compression mode                         : Lossy
    Bits/(Pixel*Frame)                       : 0.189
    Stream size                              : 1.10 GiB (80%)
    Writing library                          : XviD 73

    Audio
    ID                                       : 1
    Format                                   : AC-3
    Format/Info                              : Audio Coding 3
    Mode extension                           : CM (complete main)
    Codec ID                                 : 2000
    Duration                                 : 2h 38mn
    Bit rate mode                            : Constant
    Bit rate                                 : 192 Kbps
    Channel(s)                               : 2 channels
    Channel positions                        : Front: L R
    Sampling rate                            : 48.0 KHz
    Bit depth                                : 16 bits
    Compression mode                         : Lossy
    Stream size                              : 218 MiB (15%)
    Alignment                                : Split accross interleaves

    Скриншоты:


    © Оформление by Ворон
    freetor.icu



  • Скачать Дети войны через торрент https://pic1.kartinco.top/images/61/ordi9.jpg Скачать, смотреть онлайн Дети войны бесплантно в хорошем качестве Е:26 марта 1971 года. Начало Войны за независимость Бангладеша против Пакистана, иными словами, грядущего ада ю ровно 9 ... 10 10 2
    Торрент: Зарегистрирован [2015-03-20 20:51] · скачан: 27 раз
    Статус: √ проверено
    Размер: 1.37 GB
    Как cкачать? Как скачать Дети войны через торрент | UTorrent

    28-11-2019 20:33  

    Отключить всю рекламу на сайте

      Дорогой пользователь! Огромная просьба, поблагодарите релизера, оцените раздачу и оставьте свои комментарий, если Вы скачали Дети войны через торрент бесплатно!
      Комментировать посты могут только пользователи прошедшие не сложную регистрацию
      Показать сообщения:    

      Дети войны через торрент
      Скачать бесплатно Дети войны
      Дети войны скачать торрент
      Дети войны смотреть онлайн
      Cкачать фильм Дети войны бесплатно
      Дети войны скачать торрент в хорошем качестве
      Дети войны смотреть онлайн бесплатно в хорошем качестве


      Вы не можете начинать темы
      Вы не можете отвечать на сообщения
      Вы не можете редактировать свои сообщения
      Вы не можете удалять свои сообщения
      Вы не можете голосовать в опросах
      Вы не можете прикреплять файлы к сообщениям
      Вы можете скачивать файлы