>

8.4

Хороший звук

6.1

MVO

6.4

Line & MVO

1

7.4

1 сезон

6.8

iTunes

7.2

1 сезон

13

6.7

1 сезон

8.3

RePack

30

Deluxe

pack

9.9

Лицензия

ВАЖНО

ИГРА 18+

pack

7.3

RePack

MK11

7.7

RePack

jed

7.8

RePack

fifa19

8.5

RePack

RDR2

RePack

NEED FOR SPEED™ PAYBACK

4 сезон

9 сезон

Бесстыжие 9 сезон

Все сериалы

все сериалы на PB.wtf

RePack

FAR CRY 5

Anonymous, доброе утро, мы катастрофически не успеваем собрать деньги на оплату серверов, помогите нам пожалуйста 5,10,15р., для нас важна любая помощь . В качестве благодарности мы отключим Вам всю рекламу на сайте (укажите свой ник в строку Ваше имя)!

×
  
Magnet ссылка

Доброволец / Yevadu (Вамси Паидипалли ) [2014, боевик, триллер, HDRip, Любительский (многоголосый) [ICG] freetor.icu

Доброволец через торрент freetor.icu

Размер: 2.89 GB | Добавлен: 6 лет 6 мес. назад | Торрент скачан:115 раз
Смотреть онлайн Доброволец | Скачать    Ребята, помогите собрать деньги на оплату серверов!!!

13-03-2015 15:05 Доброволец Скачать торрент  


Доброволец / Yevadu


ИНФОРМАЦИЯ:
Год выпуска:2014
Страна: Индия
Жанр: боевик, триллер
Продолжительность: 02:45:22
Перевод: Любительский (многоголосый) [ICG] Перевод на русский язык: Rummata
Субтитры: русские отдельно(полные и на песни)
Режиссер: Вамси Паидипалли

В Ролях:


Рам Чаран Теджа, Аллу Арджун, Шрути Хасан, Эми Джексон, Каджал, Джаясудха, Сай Кумар, Шриниваса Рао Кота, Брахманандам, Рахул Дев, Эджей, Суббараджу

ОПИСАНИЕ:
Сатья и Дипти любят друг друга, но на место Дипти есть и другой претендент - опасный криминальный авторитет...

  • Мировая премьера:5 апреля 2013

    ТЕХ.ДАННЫЕ:
    Качество: HDRip
    Формат: AVI
    Видео кодек: XviD
    Аудио кодек: AC3
    Видео: XviD, 720x304 (2.35:1), 1719 kbps, 24 fps, 0,327 bpp
    Аудио №1: AC3 / 5.1 / 48 kHz / 448 kbps / (Русский)
    Аудио №2: AC3 / 2.0 / 48 kHz / 224 kbps / (Оригинал)



    Код:

    General
    Complete name                            : D:\Торенты\Yevadu 2014\Yevadu.avi
    Format                                   : AVI
    Format/Info                              : Audio Video Interleave
    File size                                : 2.89 GiB
    Duration                                 : 2h 45mn
    Overall bit rate                         : 2 502 Kbps
    Writing application                      : VirtualDubModRus 1.5.10.2 (build 2542/release)
    Writing library                          : VirtualDubMod build 2542/release

    Video
    ID                                       : 0
    Format                                   : MPEG-4 Visual
    Format profile                           : Advanced Simple@L5
    Format settings, BVOP                    : 1
    Format settings, QPel                    : No
    Format settings, GMC                     : No warppoints
    Format settings, Matrix                  : Default (MPEG)
    Codec ID                                 : XVID
    Codec ID/Hint                            : XviD
    Duration                                 : 2h 45mn
    Bit rate                                 : 1 720 Kbps
    Width                                    : 720 pixels
    Height                                   : 304 pixels
    Display aspect ratio                     : 2.35:1
    Frame rate                               : 24.000 fps
    Color space                              : YUV
    Chroma subsampling                       : 4:2:0
    Bit depth                                : 8 bits
    Scan type                                : Progressive
    Compression mode                         : Lossy
    Bits/(Pixel*Frame)                       : 0.327
    Stream size                              : 1.99 GiB (69%)
    Writing library                          : XviD 64

    Audio #1
    ID                                       : 1
    Format                                   : AC-3
    Format/Info                              : Audio Coding 3
    Mode extension                           : CM (complete main)
    Codec ID                                 : 2000
    Duration                                 : 2h 45mn
    Bit rate mode                            : Constant
    Bit rate                                 : 448 Kbps
    Channel(s)                               : 6 channels
    Channel positions                        : Front: L C R, Side: L R, LFE
    Sampling rate                            : 48.0 KHz
    Bit depth                                : 16 bits
    Compression mode                         : Lossy
    Delay relative to video                  : 28ms
    Stream size                              : 530 MiB (18%)
    Alignment                                : Split accross interleaves

    Audio #2
    ID                                       : 2
    Format                                   : AC-3
    Format/Info                              : Audio Coding 3
    Mode extension                           : CM (complete main)
    Codec ID                                 : 2000
    Duration                                 : 2h 45mn
    Bit rate mode                            : Constant
    Bit rate                                 : 224 Kbps
    Channel(s)                               : 2 channels
    Channel positions                        : Front: L R
    Sampling rate                            : 48.0 KHz
    Bit depth                                : 16 bits
    Compression mode                         : Lossy
    Stream size                              : 265 MiB (9%)
    Alignment                                : Aligned on interleaves

    Скриншоты:


    © Оформление by Ворон
    freetor.icu



  • Скачать Доброволец через торрент https://pic1.kartinco.top/images/61/ordi9.jpg Скачать, смотреть онлайн Доброволец бесплантно в хорошем качестве Е:Сатья и Дипти любят друг друга, но на место Дипти есть и другой претендент - опасный криминальный авторитет... Мировая премьера:5 апреля ... 10 10 9
    Торрент: Зарегистрирован [2015-03-13 15:05] · скачан: 115 раз
    Статус: √ проверено
    Размер: 2.89 GB
    Как cкачать? Как скачать Доброволец через торрент | UTorrent

    28-11-2019 20:33  

    Отключить всю рекламу на сайте

    13-03-2015 15:14 Доброволец Скачать торрент  

    очередной индийский тотальный калfreetor.icu



      Дорогой пользователь! Огромная просьба, поблагодарите релизера, оцените раздачу и оставьте свои комментарий, если Вы скачали Доброволец через торрент бесплатно!
      Комментировать посты могут только пользователи прошедшие не сложную регистрацию
      Показать сообщения:    

      Доброволец через торрент
      Скачать бесплатно Доброволец
      Доброволец скачать торрент
      Доброволец смотреть онлайн
      Cкачать фильм Доброволец бесплатно
      Доброволец скачать торрент в хорошем качестве
      Доброволец смотреть онлайн бесплатно в хорошем качестве


      Вы не можете начинать темы
      Вы не можете отвечать на сообщения
      Вы не можете редактировать свои сообщения
      Вы не можете удалять свои сообщения
      Вы не можете голосовать в опросах
      Вы не можете прикреплять файлы к сообщениям
      Вы можете скачивать файлы