>

5.6

iTunes

6.1

MVO

5.7

MVO

1

7.4

1 сезон

6.8

iTunes

7.2

1 сезон

13

6.7

1 сезон

8.3

RePack

30

Deluxe

pack

9.9

Лицензия

ВАЖНО

ИГРА 18+

pack

7.3

RePack

MK11

7.7

RePack

jed

7.8

RePack

fifa19

8.5

RePack

RDR2

RePack

NEED FOR SPEED™ PAYBACK

4 сезон

9 сезон

Бесстыжие 9 сезон

Все сериалы

все сериалы на PB.wtf

RePack

FAR CRY 5

Anonymous, добрый день, мы катастрофически не успеваем собрать деньги на оплату серверов, помогите нам пожалуйста 5,10,15р., для нас важна любая помощь . В качестве благодарности мы отключим Вам всю рекламу на сайте (укажите свой ник в строку Ваше имя)!

×
  
Magnet ссылка

Хайдер / Haider (Вишал Бхарадвадж ) [2014, триллер, драма, мелодрама, HDRip, Дубляж [ICG] freetor.icu

Хайдер через торрент freetor.icu

Размер: 2.19 GB | Добавлен: 6 лет 6 мес. назад | Торрент скачан:22 раза
Смотреть онлайн Хайдер | Скачать    Ребята, помогите собрать деньги на оплату серверов!!!

12-03-2015 19:44 Хайдер Скачать торрент  


Хайдер / Haider


ИНФОРМАЦИЯ:
Год выпуска:2014
Страна: Индия
Жанр: триллер, драма, мелодрама, криминал
Продолжительность: 02:41:20
Перевод: Дубляж[ICG]
Субтитры: Русские (отключаемые, полные и на тексты песен - отдельными файлами .srt)
Режиссер: Вишал Бхарадвадж

В Ролях:


Табу (Ghazala Meer), Шахид Капур (Haider Meer), Шраддха Капур (Arshia, Haider's love-interest), Кэй Кэй Менон (Khurram Meer), Нарендра Джха (Dr. Hilal Meer), Кулбхушан Харбанда (Hussain Meer), Lalit Parimoo (Pervez Lone), Ашиш Видьятхи (Brigadier T.S Murthy), Амир Башир (Liyaqat, Arshia's brother), Sumit Kaul ((Salman 1), Courtier), Раджат Бхагат ((Salman 2), Courtier), Ашват Бхатт (Zahoor)

ОПИСАНИЕ:
Индийская адаптация трагедии Уильяма Шекспира «Гамлет».

  • Мировая премьера:2 октября 2014

    ТЕХ.ДАННЫЕ:
    Качество: HDRip
    Формат: AVI
    Видео кодек: XviD
    Аудио кодек: AC3
    Видео: XviD, 720x304 (2.35:1),1258 kbps, 23,976 fps, 0,225 bpp
    Аудио №1: AC3 / 5.1 / 48 kHz / 448 kbps / [Русский]
    Аудио №2: AC3 / 2.0 / 48 kHz / 224 kbps / Хинди]



    Код:

    General
    Complete name                            : D:\Торенты\Haider.2014.HDRip.D.Rus.Hindi.ICG.GF\Haider.2014.HDRip.D.Rus.Hindi.ICG.GF.avi
    Format                                   : AVI
    Format/Info                              : Audio Video Interleave
    File size                                : 2.19 GiB
    Duration                                 : 2h 41mn
    Overall bit rate                         : 1 943 Kbps
    Writing application                      : VirtualDubModRus 1.5.10.2 (build 2542/release)
    Writing library                          : VirtualDubMod build 2542/release

    Video
    ID                                       : 0
    Format                                   : MPEG-4 Visual
    Format profile                           : Advanced Simple@L5
    Format settings, BVOP                    : 1
    Format settings, QPel                    : No
    Format settings, GMC                     : No warppoints
    Format settings, Matrix                  : Default (MPEG)
    Codec ID                                 : XVID
    Codec ID/Hint                            : XviD
    Duration                                 : 2h 41mn
    Bit rate                                 :1258 Kbps
    Width                                    : 720 pixels
    Height                                   : 304 pixels
    Display aspect ratio                     : 2.35:1
    Frame rate                               : 23.976 fps
    Color space                              : YUV
    Chroma subsampling                       : 4:2:0
    Bit depth                                : 8 bits
    Scan type                                : Progressive
    Compression mode                         : Lossy
    Bits/(Pixel*Frame)                       : 0.225
    Stream size                              : 1.33 GiB (61%)
    Writing library                          : XviD 64

    Audio #1
    ID                                       : 1
    Format                                   : AC-3
    Format/Info                              : Audio Coding 3
    Mode extension                           : CM (complete main)
    Codec ID                                 : 2000
    Duration                                 : 2h 41mn
    Bit rate mode                            : Constant
    Bit rate                                 : 448 Kbps
    Channel(s)                               : 6 channels
    Channel positions                        : Front: L C R, Side: L R, LFE
    Sampling rate                            : 48.0 KHz
    Bit depth                                : 16 bits
    Compression mode                         : Lossy
    Stream size                              : 517 MiB (23%)
    Alignment                                : Split accross interleaves

    Audio #2
    ID                                       : 2
    Format                                   : AC-3
    Format/Info                              : Audio Coding 3
    Mode extension                           : CM (complete main)
    Codec ID                                 : 2000
    Duration                                 : 2h 41mn
    Bit rate mode                            : Constant
    Bit rate                                 : 224 Kbps
    Channel(s)                               : 2 channels
    Channel positions                        : Front: L R
    Sampling rate                            : 48.0 KHz
    Bit depth                                : 16 bits
    Compression mode                         : Lossy
    Stream size                              : 258 MiB (12%)
    Alignment                                : Aligned on interleaves

    Скриншоты:


    © Оформление by Ворон
    freetor.icu



  • Скачать Хайдер через торрент https://pic1.kartinco.top/images/61/ordi9.jpg Скачать, смотреть онлайн Хайдер бесплантно в хорошем качестве Е:Индийская адаптация трагедии Уильяма Шекспира «Гамлет». Мировая премьера:2 октября 2014 ТЕХ.ДАННЫЕ: ... 7.4 10 7
    Торрент: Зарегистрирован [2015-03-12 19:44] · скачан: 22 раз
    Статус: √ проверено
    Размер: 2.19 GB
    Как cкачать? Как скачать Хайдер через торрент | UTorrent

    % Раздел Тема Автор DL S | L
    Фильмы (Blu-ray, BD-Remux, HDDVD) [ 38.85 GB ] Хайдер / Haider [2014 BDRemux 1080p] DUB+DVO Ворон Скачать
    1 | 0
    Индийское кино [ 1.46 GB ] Хайдер / Haider [2014 HDRip Любительский [den904 DeadSno] Ворон Скачать
    1 | 0
    Фильмы [HD 720p, 1080p] (Звук Cam, VO, DVO) [ 14.67 GB ] Хайдер / Haider [2014 BDRip 1080p Любительский [den904 DeadSno] Ворон Скачать
    1 | 0

    28-11-2019 20:33  

    Отключить всю рекламу на сайте

    12-03-2015 19:48 Хайдер Скачать торрент  

    ( Индийская адаптация трагедии Уильяма Шекспира «Гамлет». )
    Да ну на!? sarcasticfreetor.icu



    13-03-2015 03:04 Хайдер Скачать торрент  

    Скриншот измени :-) а то фотки с фильма Бадди Хатчинс / Buddy Hutchins freetor.icu



      Дорогой пользователь! Огромная просьба, поблагодарите релизера, оцените раздачу и оставьте свои комментарий, если Вы скачали Хайдер через торрент бесплатно!
      Комментировать посты могут только пользователи прошедшие не сложную регистрацию
      Показать сообщения:    

      Хайдер через торрент
      Скачать бесплатно Хайдер
      Хайдер скачать торрент
      Хайдер смотреть онлайн
      Cкачать фильм Хайдер бесплатно
      Хайдер скачать торрент в хорошем качестве
      Хайдер смотреть онлайн бесплатно в хорошем качестве


      Вы не можете начинать темы
      Вы не можете отвечать на сообщения
      Вы не можете редактировать свои сообщения
      Вы не можете удалять свои сообщения
      Вы не можете голосовать в опросах
      Вы не можете прикреплять файлы к сообщениям
      Вы можете скачивать файлы