>

5.6

iTunes

6.1

MVO

5.7

MVO

1

7.4

1 сезон

6.8

iTunes

7.2

1 сезон

13

6.7

1 сезон

8.3

RePack

30

Deluxe

pack

9.9

Лицензия

ВАЖНО

ИГРА 18+

pack

7.3

RePack

MK11

7.7

RePack

jed

7.8

RePack

fifa19

8.5

RePack

RDR2

RePack

NEED FOR SPEED™ PAYBACK

4 сезон

9 сезон

Бесстыжие 9 сезон

Все сериалы

все сериалы на PB.wtf

RePack

FAR CRY 5

Anonymous, доброе утро, мы катастрофически не успеваем собрать деньги на оплату серверов, помогите нам пожалуйста 5,10,15р., для нас важна любая помощь . В качестве благодарности мы отключим Вам всю рекламу на сайте (укажите свой ник в строку Ваше имя)!

×
  
Magnet ссылка

Ярость / Tevar (Amit Sharma ) [2015, боевик, триллер, драма, WEBRip 720p, Любительский (двухголосый) [den904, DeadSno] freetor.icu

Ярость через торрент freetor.icu

Размер: 2.32 GB | Добавлен: 6 лет 7 мес. назад | Торрент скачан:51 раз
Смотреть онлайн Ярость | Скачать    Ребята, помогите собрать деньги на оплату серверов!!!

18-02-2015 00:45 Ярость Скачать торрент  


Ярость / Tevar


ИНФОРМАЦИЯ:
Год выпуска:2015
Страна:Индия
Жанр:боевик, триллер, драма
Продолжительность02:31:13
Перевод:Любительский (двухголосый) [den904, DeadSno]
Субтитры: Русские (на песни)
Режиссер:Amit Sharma

В Ролях:


Сонакши Синха (Radhika), Шрути Хасан, Арджун Капур (Pintoo), Маной Баджпаи (Vijender Singh), Субрата Дутта (Kaakdi)

ОПИСАНИЕ:
Красавица Радхика попадается на глаза жестокому и эгоистичному политику Раджендер Сингху. Ослеплённый её красотой, он решает, во что бы то ни стало жениться на девушке. Но узнав об этом, Радхика пытается сбежать. Политик нагоняет несчастную, но ему не удаётся забрать её, т.к. в дело случайно вмешивается совершенно посторонний парень Пинту, который приехал в тот же город на свадьбу брата своего друга…

  • Мировая премьера:9 января 2015

    ТЕХ.ДАННЫЕ:
    Качество: WEBRip 720p
    Формат: MKV ✦ Видео кодек: AVC ✦ Аудио кодек: AC3
    Видео: 1280x536 (2.40:1)| 2000 kbps| 29,970 fps| 0,097 bpp
    Аудио: 2.0 | 48 kHz | 192 kbps | 16 bit |


    Код:

    General
    Unique ID                                : 176397100752298100312444890438330520771 (0x84B4D8893EC014DD938AD647FF0894C3)
    Complete name                            : D:\Торенты\Tevar(2015).mkv
    Format                                   : Matroska
    Format version                           : Version 4 / Version 2
    File size                                : 2.32 GiB
    Duration                                 : 2h 31mn
    Overall bit rate                         : 2 194 Kbps
    Encoded date                             : UTC 2015-02-17 08:02:48
    Writing application                      : mkvmerge v7.2.0 ('On Every Street') 64bit built on Sep 13 2014 15:52:10
    Writing library                          : libebml v1.3.0 + libmatroska v1.4.1

    Video
    ID                                       : 1
    Format                                   : AVC
    Format/Info                              : Advanced Video Codec
    Format profile                           : High@L4.1
    Format settings, CABAC                   : Yes
    Format settings, ReFrames                : 8 frames
    Codec ID                                 : V_MPEG4/ISO/AVC
    Duration                                 : 2h 31mn
    Bit rate                                 : 2 000 Kbps
    Width                                    : 1 280 pixels
    Height                                   : 536 pixels
    Display aspect ratio                     : 2.40:1
    Frame rate                               : 29.970 fps
    Color space                              : YUV
    Chroma subsampling                       : 4:2:0
    Bit depth                                : 8 bits
    Scan type                                : Progressive
    Bits/(Pixel*Frame)                       : 0.097
    Stream size                              : 2.07 GiB (89%)
    Writing library                          : x264 core 142 r2431 ac76440
    Encoding settings                        : cabac=1 / ref=8 / deblock=1:0:0 / analyse=0x3:0x113 / me=umh / subme=10 / psy=1 / psy_rd=1.00:0.00 / mixed_ref=1 / me_range=16 / chroma_me=1 / trellis=2 / 8x8dct=1 / cqm=0 / deadzone=21,11 / fast_pskip=1 / chroma_qp_offset=-2 / threads=24 / lookahead_threads=2 / sliced_threads=0 / nr=0 / decimate=1 / interlaced=0 / bluray_compat=0 / constrained_intra=0 / bframes=3 / b_pyramid=2 / b_adapt=2 / b_bias=0 / direct=3 / weightb=1 / open_gop=0 / weightp=2 / keyint=300 / keyint_min=29 / scenecut=40 / intra_refresh=0 / rc_lookahead=50 / rc=2pass / mbtree=1 / bitrate=2000 / ratetol=1.0 / qcomp=0.60 / qpmin=0 / qpmax=69 / qpstep=4 / cplxblur=20.0 / qblur=0.5 / vbv_maxrate=62500 / vbv_bufsize=78125 / nal_hrd=none / filler=0 / ip_ratio=1.40 / aq=1:1.00
    Default                                  : Yes
    Forced                                   : No
    Color primaries                          : Generic film
    Transfer characteristics                 : BT.709-5, BT.1361
    Matrix coefficients                      : BT.709-5, BT.1361, IEC 61966-2-4 709, SMPTE RP177

    Audio
    ID                                       : 3
    Format                                   : AC-3
    Format/Info                              : Audio Coding 3
    Mode extension                           : CM (complete main)
    Codec ID                                 : A_AC3
    Duration                                 : 2h 31mn
    Bit rate mode                            : Constant
    Bit rate                                 : 192 Kbps
    Channel(s)                               : 2 channels
    Channel positions                        : Front: L R
    Sampling rate                            : 48.0 KHz
    Bit depth                                : 16 bits
    Compression mode                         : Lossy
    Stream size                              : 208 MiB (9%)
    Default                                  : Yes
    Forced                                   : No

    Text
    ID                                       : 2
    Format                                   : UTF-8
    Codec ID                                 : S_TEXT/UTF8
    Codec ID/Info                            : UTF-8 Plain Text
    Default                                  : Yes
    Forced                                   : No

    Скриншоты:


    © Оформление by Ворон
    freetor.icu



  • Скачать Ярость через торрент https://pic1.kartinco.top/images/61/ordi9.jpg Скачать, смотреть онлайн Ярость бесплантно в хорошем качестве Е:Красавица Радхика попадается на глаза жестокому и эгоистичному политику Раджендер Сингху. Ослеплённый её красотой, он решает, во что бы ... 10 10 4
    Торрент: Зарегистрирован [2015-02-18 02:18] · скачан: 51 раз
    Статус: T временная
    Размер: 2.32 GB
    Как cкачать? Как скачать Ярость через торрент | UTorrent

    28-11-2019 20:33  

    Отключить всю рекламу на сайте

      Дорогой пользователь! Огромная просьба, поблагодарите релизера, оцените раздачу и оставьте свои комментарий, если Вы скачали Ярость через торрент бесплатно!
      Комментировать посты могут только пользователи прошедшие не сложную регистрацию
      Показать сообщения:    

      Ярость через торрент
      Скачать бесплатно Ярость
      Ярость скачать торрент
      Ярость смотреть онлайн
      Cкачать фильм Ярость бесплатно
      Ярость скачать торрент в хорошем качестве
      Ярость смотреть онлайн бесплатно в хорошем качестве


      Вы не можете начинать темы
      Вы не можете отвечать на сообщения
      Вы не можете редактировать свои сообщения
      Вы не можете удалять свои сообщения
      Вы не можете голосовать в опросах
      Вы не можете прикреплять файлы к сообщениям
      Вы можете скачивать файлы