>

5.6

iTunes

6.1

MVO

5.7

MVO

1

7.4

1 сезон

6.8

iTunes

7.2

1 сезон

13

6.7

1 сезон

8.3

RePack

30

Deluxe

pack

9.9

Лицензия

ВАЖНО

ИГРА 18+

pack

7.3

RePack

MK11

7.7

RePack

jed

7.8

RePack

fifa19

8.5

RePack

RDR2

RePack

NEED FOR SPEED™ PAYBACK

4 сезон

9 сезон

Бесстыжие 9 сезон

Все сериалы

все сериалы на PB.wtf

RePack

FAR CRY 5

Anonymous, добрый день, мы катастрофически не успеваем собрать деньги на оплату серверов, помогите нам пожалуйста 5,10,15р., для нас важна любая помощь . В качестве благодарности мы отключим Вам всю рекламу на сайте (укажите свой ник в строку Ваше имя)!

×
  
Magnet ссылка

Сердце к сердцу / Heart Attack (Пури Джаганнатх ) [2014, боевик, мелодрама, DVDRip, Любительский (двухголосый) freetor.icu

Сердце к сердцу через торрент freetor.icu

Размер: 2.19 GB | Добавлен: 6 лет 7 мес. назад | Торрент скачан:47 раз
Смотреть онлайн Сердце к сердцу | Скачать    Ребята, помогите собрать деньги на оплату серверов!!!

18-02-2015 00:36 Сердце к сердцу Скачать торрент  


Сердце к сердцу / Heart Attack


Информация:
Год выпуска:2014
Страна: Индия
Жанр:боевик, мелодрама
Продолжительность02:22:20
Перевод:Любительский (двухголосый)
Субтитры: Русские
Режиссер:Пури Джаганнатх

В ролях:


Брахманандам (Iskcon Ramana), Нитин (Varun), Пракаш Радж, Ада Шарма (Hayati), Sergi Subirà (Fighter)

Описание:
Он бродит по свету, пробиваясь случайными заработками, он спит на улицах городов и готовит себе ужин на горелке. Потому что у него нет семьи, и он приучил себя к мысли, что друзья ему тоже не нужны. Он называет себя свободной душой и не верит в отношения. И вдруг появляется она – ступает на приветливый испанский берег, и сердце молодого человека пропускает предательский удар. Она приехала в Испанию к подруге, которая отчаянно нуждается в помощи. И убедилась, что правда, какая бы рискованная она ни была, приносит гораздо больше пользы, чем ложь.

  • Мировая премьера:31 января 2014


    Тех.Данные:
    Качество: DVDRip
    Формат:AVI
    Видео кодек: XviD
    Аудио кодек:AC3
    Видео: XviD, 720x304 (2.35:1), 1738 kbps, 24 fps, 0,315 bpp
    Аудио №1: AC3 / 2.0 / 48 kHz / 224 kbps / Русский
    Аудио №2: AC3 / 2.0 / 48 kHz / 224 kbps /телугу


    Код:

    General
    Complete name                            : D:\Торенты\Heart.Attack.2014.DVDRip.Rus.Original.Autobub&ICG.TW\Heart.Attack.2014.DVDRip.Rus.Original.Autobub&ICG.TW.avi
    Format                                   : AVI
    Format/Info                              : Audio Video Interleave
    File size                                : 2.19 GiB
    Duration                                 : 2h 22mn
    Overall bit rate                         : 2 202 Kbps
    Writing application                      : VirtualDubModRus 1.5.10.2 (build 2542/release)
    Writing library                          : VirtualDubMod build 2542/release

    Video
    ID                                       : 0
    Format                                   : MPEG-4 Visual
    Format profile                           : Advanced Simple@L5
    Format settings, BVOP                    : 1
    Format settings, QPel                    : No
    Format settings, GMC                     : No warppoints
    Format settings, Matrix                  : Default (MPEG)
    Codec ID                                 : XVID
    Codec ID/Hint                            : XviD
    Duration                                 : 2h 22mn
    Bit rate                                 : 1738 Kbps
    Width                                    : 720 pixels
    Height                                   : 304 pixels
    Display aspect ratio                     : 2.35:1
    Frame rate                               : 24.000 fps
    Color space                              : YUV
    Chroma subsampling                       : 4:2:0
    Bit depth                                : 8 bits
    Scan type                                : Progressive
    Compression mode                         : Lossy
    Bits/(Pixel*Frame)                       : 0.315
    Stream size                              : 1.65 GiB (75%)
    Writing library                          : XviD 64

    Audio #1
    ID                                       : 1
    Format                                   : AC-3
    Format/Info                              : Audio Coding 3
    Mode extension                           : CM (complete main)
    Codec ID                                 : 2000
    Duration                                 : 2h 22mn
    Bit rate mode                            : Constant
    Bit rate                                 : 224 Kbps
    Channel(s)                               : 2 channels
    Channel positions                        : Front: L R
    Sampling rate                            : 48.0 KHz
    Bit depth                                : 16 bits
    Compression mode                         : Lossy
    Stream size                              : 228 MiB (10%)
    Alignment                                : Aligned on interleaves

    Audio #2
    ID                                       : 2
    Format                                   : AC-3
    Format/Info                              : Audio Coding 3
    Mode extension                           : CM (complete main)
    Codec ID                                 : 2000
    Duration                                 : 2h 22mn
    Bit rate mode                            : Constant
    Bit rate                                 : 224 Kbps
    Channel(s)                               : 2 channels
    Channel positions                        : Front: L R
    Sampling rate                            : 48.0 KHz
    Bit depth                                : 16 bits
    Compression mode                         : Lossy
    Stream size                              : 228 MiB (10%)
    Alignment                                : Split accross interleaves

    Скриншоты:


    © Оформление by Ворон
    freetor.icu



  • Скачать Сердце к сердцу через торрент https://pic1.kartinco.top/images/61/ordi9.jpg Скачать, смотреть онлайн Сердце к сердцу бесплантно в хорошем качестве Год выпуска:2014✦ Страна: Индия✦ Жанр:боевик, мелодрама✦ Продолжительность02:22:20✦ Перевод: (двухголосый)✦ Субтитры: Русские✦ ... 10 10 2
    Торрент: Зарегистрирован [2015-02-18 02:20] · скачан: 47 раз
    Статус: √ проверено
    Размер: 2.19 GB
    Как cкачать? Как скачать Сердце к сердцу через торрент | UTorrent

    28-11-2019 20:33  

    Отключить всю рекламу на сайте

      Дорогой пользователь! Огромная просьба, поблагодарите релизера, оцените раздачу и оставьте свои комментарий, если Вы скачали Сердце к сердцу через торрент бесплатно!
      Комментировать посты могут только пользователи прошедшие не сложную регистрацию
      Показать сообщения:    

      Сердце к сердцу через торрент
      Скачать бесплатно Сердце к сердцу
      Сердце к сердцу скачать торрент
      Сердце к сердцу смотреть онлайн
      Cкачать фильм Сердце к сердцу бесплатно
      Сердце к сердцу скачать торрент в хорошем качестве
      Сердце к сердцу смотреть онлайн бесплатно в хорошем качестве


      Вы не можете начинать темы
      Вы не можете отвечать на сообщения
      Вы не можете редактировать свои сообщения
      Вы не можете удалять свои сообщения
      Вы не можете голосовать в опросах
      Вы не можете прикреплять файлы к сообщениям
      Вы можете скачивать файлы