>

8.4

Хороший звук

6.1

MVO

6.4

Line & MVO

1

7.4

1 сезон

6.8

iTunes

7.2

1 сезон

13

6.7

1 сезон

8.3

RePack

30

Deluxe

pack

9.9

Лицензия

ВАЖНО

ИГРА 18+

pack

7.3

RePack

MK11

7.7

RePack

jed

7.8

RePack

fifa19

8.5

RePack

RDR2

RePack

NEED FOR SPEED™ PAYBACK

4 сезон

9 сезон

Бесстыжие 9 сезон

Все сериалы

все сериалы на PB.wtf

RePack

FAR CRY 5

Anonymous, доброе утро, мы катастрофически не успеваем собрать деньги на оплату серверов, помогите нам пожалуйста 5,10,15р., для нас важна любая помощь . В качестве благодарности мы отключим Вам всю рекламу на сайте (укажите свой ник в строку Ваше имя)!

×
  
Magnet ссылка

Неудержимый / Aagadu (Срину Вайтла ) [2014, боевик, драма, комедия, HDRip, Любительский (двухголосый) [den904, DeadSno] freetor.icu

Неудержимый через торрент freetor.icu

Размер: 2.05 GB | Добавлен: 6 лет 7 мес. назад | Торрент скачан:111 раз
Смотреть онлайн Неудержимый | Скачать    Ребята, помогите собрать деньги на оплату серверов!!!

13-02-2015 16:46 Неудержимый Скачать торрент  


Неудержимый / Aagadu


Информация:
Год выпуска:2014
Страна: Индия
Жанр:боевик, драма, комедия, семейный
Продолжительность02:42:02
Перевод:Любительский (двухголосый) [den904, DeadSno]
Режиссер:Срину Вайтла

В ролях:


Махеш Бабу, Таманна Бхатия, Сону Суд, Брахманандам, Раджендрапрасад, Брахмаджи, Vennela Kishore, Ашиш Видьятхи (Police comissioner)

Описание:
Полицейский Шанкар, по прозвищу «Неудержимый», новый окружной инспектор, которого переводят в Букапатнам, проросший грязью и коррупцией город, в котором господствует местный авторитет мафии, Дамодар, помешанный на проекте своей мечты - электростанции, которая позволит ему наживаться на бедных людях и от души набивать карманы себе и своим подельникам.
Узнав об этом, Шанкар решает стать костью в горле опасного бандита и объявляет войну негодяю, обещая истребить по одному весь его состав, тем более, что Дамодар причастен к старой душевной ране, которую Шанкар долго лет носит в своём сердце. Предстоит схватка между честностью и бесчестием...

  • Мировая премьера:19 сентября 2014

    Тех.Данные:
    Качество: HDRip
    Формат:AVI
    Видео кодек: XviD
    Аудио кодек:AC3
    Видео: XviD, 720x304 (2.35:1), 1614 kbps, 24 fps, 0,293 bpp
    Аудио: AC3 / 2.0 / 48 kHz / 192 kbps / 16 bit

    Код:

    General
    Complete name                            : D:\Торенты\Neuderzhimiy.2014.XviD.HDRip-Dego.avi
    Format                                   : AVI
    Format/Info                              : Audio Video Interleave
    File size                                : 2.05 GiB
    Duration                                 : 2h 42mn
    Overall bit rate                         : 1 814 Kbps
    Writing application                      : VirtualDubMod 1.5.10.2 (build 2540/release)
    Writing library                          : VirtualDubMod build 2540/release

    Video
    ID                                       : 0
    Format                                   : MPEG-4 Visual
    Format profile                           : Advanced Simple@L5
    Format settings, BVOP                    : 1
    Format settings, QPel                    : No
    Format settings, GMC                     : No warppoints
    Format settings, Matrix                  : Custom
    Codec ID                                 : XVID
    Codec ID/Hint                            : XviD
    Duration                                 : 2h 42mn
    Bit rate                                 : 1614 Kbps
    Width                                    : 720 pixels
    Height                                   : 304 pixels
    Display aspect ratio                     : 2.35:1
    Frame rate                               : 24.000 fps
    Color space                              : YUV
    Chroma subsampling                       : 4:2:0
    Bit depth                                : 8 bits
    Scan type                                : Progressive
    Compression mode                         : Lossy
    Bits/(Pixel*Frame)                       : 0.293
    Stream size                              : 1.74 GiB (85%)
    Writing library                          : XviD 1.2.1 (UTC 2008-12-04)

    Audio
    ID                                       : 1
    Format                                   : AC-3
    Format/Info                              : Audio Coding 3
    Mode extension                           : CM (complete main)
    Codec ID                                 : 2000
    Duration                                 : 2h 42mn
    Bit rate mode                            : Constant
    Bit rate                                 : 192 Kbps
    Channel(s)                               : 2 channels
    Channel positions                        : Front: L R
    Sampling rate                            : 48.0 KHz
    Bit depth                                : 16 bits
    Compression mode                         : Lossy
    Stream size                              : 223 MiB (11%)
    Alignment                                : Split accross interleaves

    Скриншоты:


    © Оформление by Ворон
    freetor.icu



  • Скачать Неудержимый через торрент https://pic1.kartinco.top/images/61/ordi9.jpg Скачать, смотреть онлайн Неудержимый бесплантно в хорошем качестве Год выпуска:2014✦ Страна: Индия✦ Жанр:боевик, драма, комедия, семейный✦ Продолжительность02:42:02✦ Перевод: (двухголосый) ... 10 10 6
    Торрент: Зарегистрирован [2015-02-13 16:46] · скачан: 111 раз
    Статус: √ проверено
    Размер: 2.05 GB
    Как cкачать? Как скачать Неудержимый через торрент | UTorrent

    % Раздел Тема Автор DL S | L
    Индийское кино [ 12.19 GB ] Неудержимый / Aagadu [2014 BDRip 1080p Любительский [den904 DeadSno] Ворон Скачать
    1 | 0

    28-11-2019 20:33  

    Отключить всю рекламу на сайте

    13-02-2015 17:08 Неудержимый Скачать торрент  

    танцы со слонами присутствуют?))freetor.icu



      Дорогой пользователь! Огромная просьба, поблагодарите релизера, оцените раздачу и оставьте свои комментарий, если Вы скачали Неудержимый через торрент бесплатно!
      Комментировать посты могут только пользователи прошедшие не сложную регистрацию
      Показать сообщения:    

      Неудержимый через торрент
      Скачать бесплатно Неудержимый
      Неудержимый скачать торрент
      Неудержимый смотреть онлайн
      Cкачать фильм Неудержимый бесплатно
      Неудержимый скачать торрент в хорошем качестве
      Неудержимый смотреть онлайн бесплатно в хорошем качестве


      Вы не можете начинать темы
      Вы не можете отвечать на сообщения
      Вы не можете редактировать свои сообщения
      Вы не можете удалять свои сообщения
      Вы не можете голосовать в опросах
      Вы не можете прикреплять файлы к сообщениям
      Вы можете скачивать файлы