>

5.6

iTunes

6.1

MVO

5.7

MVO

1

7.4

1 сезон

6.8

iTunes

7.2

1 сезон

13

6.7

1 сезон

8.3

RePack

30

Deluxe

pack

9.9

Лицензия

ВАЖНО

ИГРА 18+

pack

7.3

RePack

MK11

7.7

RePack

jed

7.8

RePack

fifa19

8.5

RePack

RDR2

RePack

NEED FOR SPEED™ PAYBACK

4 сезон

9 сезон

Бесстыжие 9 сезон

Все сериалы

все сериалы на PB.wtf

RePack

FAR CRY 5

Anonymous, добрый вечер, мы катастрофически не успеваем собрать деньги на оплату серверов, помогите нам пожалуйста 5,10,15р., для нас важна любая помощь . В качестве благодарности мы отключим Вам всю рекламу на сайте (укажите свой ник в строку Ваше имя)!

×
  
Magnet ссылка

Неудержимый / Aagadu (Срину Вайтла ) [2014, боевик, драма, комедия, BDRip 1080p, Любительский (двухголосый) [den904, DeadSno] freetor.icu

Неудержимый через торрент freetor.icu

Размер: 12.19 GB | Добавлен: 6 лет 7 мес. назад | Торрент скачан:14 раз
Смотреть онлайн Неудержимый | Скачать    Ребята, помогите собрать деньги на оплату серверов!!!

13-02-2015 16:43 Неудержимый Скачать торрент  


Неудержимый / Aagadu


ИНФОРМАЦИЯ:
Год выпуска:2014
Страна: Индия
Жанр:боевик, драма, комедия, семейный
Продолжительность02:42:03
Перевод:Любительский (двухголосый) [den904, DeadSno]
Субтитры: английские,
Режиссер:Срину Вайтла

В Ролях:


Махеш Бабу, Таманна Бхатия, Сону Суд, Брахманандам, Раджендрапрасад, Брахмаджи, Vennela Kishore, Ашиш Видьятхи (Police comissioner)

ОПИСАНИЕ:
Полицейский Шанкар, по прозвищу «Неудержимый», новый окружной инспектор, которого переводят в Букапатнам, проросший грязью и коррупцией город, в котором господствует местный авторитет мафии, Дамодар, помешанный на проекте своей мечты - электростанции, которая позволит ему наживаться на бедных людях и от души набивать карманы себе и своим подельникам.
Узнав об этом, Шанкар решает стать костью в горле опасного бандита и объявляет войну негодяю, обещая истребить по одному весь его состав, тем более, что Дамодар причастен к старой душевной ране, которую Шанкар долго лет носит в своём сердце. Предстоит схватка между честностью и бесчестием...


ТЕХ.ДАННЫЕ:
Качество: BDRip 1080p
Формат:MKV
Видео кодек: AVC
Аудио кодек:AC3, DTS-HD
Видео: AVC, 1920x816 (2.35:1), 8738 kbps, 24 fps, 0,206 bpp
Аудио №1: русский / AC3 / 2.0 / 48 kHz / 192 kbps / 16 bit ||
Аудио №2: Telugu / DTS-HD / 5.1 / 48 kHz / 2625 kbps / 24 bit (Core: 5.1 / 48 kHz / 1510 kbps / 24 bit)

Код:

General
Unique ID                                : 201308463648269902531291521694647384097 (0x9772998DCBACCD638E4E956196F2F821)
Complete name                            : D:\Торенты\Aagadu (2014) Telugu 1080p BluRay x264 DTS-HD MA ESub - Team Telly.Rus.mkv
Format                                   : Matroska
Format version                           : Version 4 / Version 2
File size                                : 12.2 GiB
Duration                                 : 2h 42mn
Overall bit rate mode                    : Variable
Overall bit rate                         : 10.8 Mbps
Movie name                               : ~ Honey & Haseena ~
Encoded date                             : UTC 2015-02-01 16:59:46
Writing application                      : mkvmerge v6.6.0 ('The Edge Of The In Between') built on Dec  1 2013 17:55:00
Writing library                          : libebml v1.3.0 + libmatroska v1.4.1

Video
ID                                       : 1
Format                                   : AVC
Format/Info                              : Advanced Video Codec
Format profile                           : High@L4.1
Format settings, CABAC                   : Yes
Format settings, ReFrames                : 5 frames
Codec ID                                 : V_MPEG4/ISO/AVC
Duration                                 : 2h 42mn
Bit rate                                 : 8 738 Kbps
Width                                    : 1 920 pixels
Height                                   : 816 pixels
Display aspect ratio                     : 2.35:1
Frame rate                               : 24.000 fps
Color space                              : YUV
Chroma subsampling                       : 4:2:0
Bit depth                                : 8 bits
Scan type                                : Progressive
Bits/(Pixel*Frame)                       : 0.206
Stream size                              : 8.76 GiB (72%)
Default                                  : Yes
Forced                                   : No
Color primaries                          : Generic film
Transfer characteristics                 : BT.709-5, BT.1361
Matrix coefficients                      : BT.709-5, BT.1361, IEC 61966-2-4 709, SMPTE RP177

Audio #1
ID                                       : 2
Format                                   : AC-3
Format/Info                              : Audio Coding 3
Mode extension                           : CM (complete main)
Codec ID                                 : A_AC3
Duration                                 : 2h 42mn
Bit rate mode                            : Constant
Bit rate                                 : 192 Kbps
Channel(s)                               : 2 channels
Channel positions                        : Front: L R
Sampling rate                            : 48.0 KHz
Bit depth                                : 16 bits
Compression mode                         : Lossy
Stream size                              : 223 MiB (2%)
Title                                    : den904&DeadSnow
Language                                 : Russian
Default                                  : No
Forced                                   : No

Audio #2
ID                                       : 3
Format                                   : DTS
Format/Info                              : Digital Theater Systems
Format profile                           : MA / Core
Codec ID                                 : A_DTS
Duration                                 : 2h 42mn
Bit rate mode                            : Variable
Bit rate                                 : 2 626 Kbps / 1 510 Kbps
Channel(s)                               : 6 channels
Channel positions                        : Front: L C R, Side: L R, LFE
Sampling rate                            : 48.0 KHz
Bit depth                                : 24 bits
Compression mode                         : Lossless / Lossy
Delay relative to video                  : 9ms
Language                                 : Telugu
Default                                  : No
Forced                                   : No

Text
ID                                       : 4
Format                                   : PGS
Muxing mode                              : zlib
Codec ID                                 : S_HDMV/PGS
Codec ID/Info                            : The same subtitle format used on BDs/HD-DVDs
Language                                 : English
Default                                  : No
Forced                                   : No

Скриншоты:


© Оформление by Ворон
freetor.icu



Скачать Неудержимый через торрент https://pic1.kartinco.top/images/61/ordi9.jpg Скачать, смотреть онлайн Неудержимый бесплантно в хорошем качестве Е:Полицейский Шанкар, по прозвищу «Неудержимый», новый окружной инспектор, которого переводят в Букапатнам, проросший грязью и коррупцией ... 10 10 2
Торрент: Зарегистрирован [2015-02-13 16:43] · скачан: 14 раз
Статус: √ проверено
Размер: 12.19 GB
Как cкачать? Как скачать Неудержимый через торрент | UTorrent

% Раздел Тема Автор DL S | L
Индийское кино [ 2.05 GB ] Неудержимый / Aagadu [2014 HDRip Любительский [den904 DeadSno] Ворон Скачать
1 | 0

28-11-2019 20:33  

Отключить всю рекламу на сайте

    Дорогой пользователь! Огромная просьба, поблагодарите релизера, оцените раздачу и оставьте свои комментарий, если Вы скачали Неудержимый через торрент бесплатно!
    Комментировать посты могут только пользователи прошедшие не сложную регистрацию
    Показать сообщения:    

    Неудержимый через торрент
    Скачать бесплатно Неудержимый
    Неудержимый скачать торрент
    Неудержимый смотреть онлайн
    Cкачать фильм Неудержимый бесплатно
    Неудержимый скачать торрент в хорошем качестве
    Неудержимый смотреть онлайн бесплатно в хорошем качестве


    Вы не можете начинать темы
    Вы не можете отвечать на сообщения
    Вы не можете редактировать свои сообщения
    Вы не можете удалять свои сообщения
    Вы не можете голосовать в опросах
    Вы не можете прикреплять файлы к сообщениям
    Вы можете скачивать файлы