>

8.4

Хороший звук

6.1

MVO

6.4

Line & MVO

1

7.4

1 сезон

6.8

iTunes

7.2

1 сезон

13

6.7

1 сезон

8.3

RePack

30

Deluxe

pack

9.9

Лицензия

ВАЖНО

ИГРА 18+

pack

7.3

RePack

MK11

7.7

RePack

jed

7.8

RePack

fifa19

8.5

RePack

RDR2

RePack

NEED FOR SPEED™ PAYBACK

4 сезон

9 сезон

Бесстыжие 9 сезон

Все сериалы

все сериалы на PB.wtf

RePack

FAR CRY 5

Anonymous, доброе утро, мы катастрофически не успеваем собрать деньги на оплату серверов, помогите нам пожалуйста 5,10,15р., для нас важна любая помощь . В качестве благодарности мы отключим Вам всю рекламу на сайте (укажите свой ник в строку Ваше имя)!

×
  
Magnet ссылка

Одна / Неразлучные / Alone (Бхушан Патель ) [2015, ужасы, WEB-DLRip, Любительский (двухголосый) [den904, DeadSno] freetor.icu

Одна через торрент freetor.icu

Размер: 1.45 GB | Добавлен: 6 лет 7 мес. назад | Торрент скачан:116 раз
Смотреть онлайн Одна | Скачать    Ребята, помогите собрать деньги на оплату серверов!!!

13-02-2015 12:48 Одна Скачать торрент  


Одна / Неразлучные / Alone


Информация:
Год выпуска:2015
Страна: Индия
Жанр:ужасы
Продолжительность02:10:12
Перевод:Любительский (двухголосый) [den904, DeadSno]
Режиссер:Бхушан Патель

В ролях:


Бипаша Басу (Anjana / Sanjana), Каран Гровер (Kabir), Сулабха Эрийа (Mangala), Закир Хуссэйн (Namit), Нина Гупта (Sanjana's Mother), Nilima Priya (Jaya), Санджай Шарма (Tantrik)

Описание:
Красавица Санджана ведёт спокойную жизнь вместе со своим мужем Кабиром. Однажды, раздаётся звонок из Кералы, родного города Санджаны и ей сообщают, что её мама парализована. Приехав туда, девушка начинает чувствовать присутствие своей умершей сестры-близнеца, которая пытается ей что-то сказать..

  • Мировая премьера:16 января 2015

    Тех.Данные:
    Качество: WEB-DLRip
    Формат:AVI
    Видео кодек: XviD
    Аудио кодек:MP3
    Видео: XviD, 720x304 (2.35:1), 1459 kbps, 24 fps, 0,266 bpp
    Аудио: MP3 / 2.0 / 48 kHz / 128 kbps /

    Код:

    General
    Complete name                            : D:\Торенты\Nerazluchnye.2015.WEB-DLRip.XviD.Kolobok-soso4eg.avi
    Format                                   : AVI
    Format/Info                              : Audio Video Interleave
    File size                                : 1.45 GiB
    Duration                                 : 2h 10mn
    Overall bit rate                         : 1459 Kbps
    Movie name                               :  Alone.2015.WEB-DLRip.XviD.Kolobok-soso4eg
    Director                                 : soso4eg
    Writing application                      : VirtualDubMod 1.5.10.3 | www.virtualdub-fr.org || (build 2550/release)
    Original source form/Name                : Hindi
    Copyright                                : специально для BitTorrent трекер RuTracker.org (ex torrents.ru)
    Comment                                  : пер. DeadSno & den904 по суб. Honey&Haseena

    Video
    ID                                       : 0
    Format                                   : MPEG-4 Visual
    Format profile                           : Advanced Simple@L5
    Format settings, BVOP                    : 2
    Format settings, QPel                    : No
    Format settings, GMC                     : No warppoints
    Format settings, Matrix                  : Default (MPEG)
    Codec ID                                 : XVID
    Codec ID/Hint                            : XviD
    Duration                                 : 2h 10mn
    Bit rate                                 : 1 397 Kbps
    Width                                    : 720 pixels
    Height                                   : 304 pixels
    Display aspect ratio                     : 2.35:1
    Frame rate                               : 24.000 fps
    Color space                              : YUV
    Chroma subsampling                       : 4:2:0
    Bit depth                                : 8 bits
    Scan type                                : Progressive
    Compression mode                         : Lossy
    Bits/(Pixel*Frame)                       : 0.266
    Stream size                              : 1.27 GiB (87%)
    Writing library                          : XviD 1.2.1 (UTC 2008-12-04)

    Audio
    ID                                       : 1
    Format                                   : MPEG Audio
    Format version                           : Version 1
    Format profile                           : Layer 3
    Mode                                     : Joint stereo
    Mode extension                           : MS Stereo
    Codec ID                                 : 55
    Codec ID/Hint                            : MP3
    Duration                                 : 2h 10mn
    Bit rate mode                            : Constant
    Bit rate                                 : 128 Kbps
    Channel(s)                               : 2 channels
    Sampling rate                            : 48.0 KHz
    Compression mode                         : Lossy
    Stream size                              : 119 MiB (8%)
    Alignment                                : Aligned on interleaves
    Writing library                          : LAME3.90.3ЄЄЄЄЄЄЄЄЄЄ

    Скриншоты:


    © Оформление by Ворон
    freetor.icu



  • Скачать Одна через торрент https://pic1.kartinco.top/images/61/ordi9.jpg Скачать, смотреть онлайн Одна бесплантно в хорошем качестве Год выпуска:2015✦ Страна: Индия✦ Жанр:ужасы ✦ Продолжительность02:10:12✦ Перевод: (двухголосый) [den904, ... 10 10 9
    Торрент: Зарегистрирован [2015-02-13 12:48] · скачан: 116 раз
    Статус: √ проверено
    Размер: 1.45 GB
    Как cкачать? Как скачать Одна через торрент | UTorrent

    28-11-2019 20:33  

    Отключить всю рекламу на сайте

      Дорогой пользователь! Огромная просьба, поблагодарите релизера, оцените раздачу и оставьте свои комментарий, если Вы скачали Одна через торрент бесплатно!
      Комментировать посты могут только пользователи прошедшие не сложную регистрацию
      Показать сообщения:    

      Одна через торрент
      Скачать бесплатно Одна
      Одна скачать торрент
      Одна смотреть онлайн
      Cкачать фильм Одна бесплатно
      Одна скачать торрент в хорошем качестве
      Одна смотреть онлайн бесплатно в хорошем качестве


      Вы не можете начинать темы
      Вы не можете отвечать на сообщения
      Вы не можете редактировать свои сообщения
      Вы не можете удалять свои сообщения
      Вы не можете голосовать в опросах
      Вы не можете прикреплять файлы к сообщениям
      Вы можете скачивать файлы